Статистика раздачи
Размер:  1.03 GB   |    Зарегистрирован:  13 дней   |    .torrent скачан:  18 раз   |   

Пиры будут получены при скачивании

 

Скачать порно La Vengeance d'une pute / Winner Takes All / Quitte ou Double: Maîtresse pour jeux vicieuses / Slut's Revenge / Veronique - Stark aus Leidenschaft / Пан или пропал через торрент бесплатно :: UnionPron.org

 
 
Автор Сообщение

Sakura

avatar Sakura


La Vengeance d''une pute | Winner Takes All | Quitte ou Double: Maîtresse pour jeux vicieuses | Slut''s Revenge | Veronique - Stark aus Leidenschaft | Пан или пропал

Год производства: 2001 г.
Страна: Франция | France
Жанр: Feature
Продолжительность: 01:30:07
Язык: Французский | French

Режиссер: Roy Alexandre
Студия: Avalon Enterprises

В ролях: Amanda Twice, Bruno SX, George Uhl, Charlie Stygger, Marie-Anne, Max Cortes, Meret Melt, Valentine Rush, [url=...1390113]Rita Faltoyano[/url], Rumika Powers, Steve Holmes, [url=...1045350]Susie Sorrento[/url]

Описание: Рита Фалтояно - экс-проститутка, замужем за очень богатым, но страдающим от азартных игр, мужчиной. А это может означать только одно: большие проблемы! Мужчина умудрился потерять все что, заработал непосильным трудом, но Рита не собиралась так просто сдаваться! Рита обращается за помощью к своим бывшим коллегам…

Scene Breakdowns:
Scene 1. [url=...1390113]Rita Faltoyano[/url], Max Cortes
Scene 2. [url=...1816965]Rumika Powers[/url], Charlie Stygger
Scene 3. Marie-Anne, [url=...1816965]Rumika Powers[/url], Steve Holmes
Scene 4. Amanda Twice, Bruno SX
Scene 5. [url=...1045350]Susie Sorrento[/url], George Uhl
Scene 6. Amanda Twice, Meret Melt, Valentine Rush
Scene 7. Meret Melt, Valentine Rush, [url=...1390113]Rita Faltoyano[/url], Steve Holmes
General
Format : AVI
Format/Info : Audio Video Interleave
File size : 1.03 GiB
Duration : 1h 30mn
Overall bit rate : 1 636 Kbps
Writing application : Nandub v1.0rc2
Writing library : Nandub build 1852/release
Video
Format : MPEG-4 Visual
Format profile : Streaming Video@L1
Format settings, BVOP : Yes
Format settings, QPel : No
Format settings, GMC : No warppoints
Format settings, Matrix : Default (H.263)
Muxing mode : Packed bitstream
Codec ID : XVID
Codec ID/Hint : XviD
Duration : 1h 30mn
Bit rate : 1 495 Kbps
Width : 576 pixels
Height : 432 pixels
Display aspect ratio : 4/3
Frame rate : 25.000 fps
Resolution : 24 bits
Colorimetry : 4:2:0
Scan type : Progressive
Bits/(Pixel*Frame) : 0.240
Stream size : 964 MiB (91%)
Writing library : XviD 1.1.0 (UTC 2005-11-22)
Audio
Format : MPEG Audio
Format version : Version 1
Format profile : Layer 3
Codec ID : 55
Codec ID/Hint : MP3
Duration : 1h 30mn
Bit rate mode : Constant
Bit rate : 128 Kbps
Channel(s) : 2 channels
Sampling rate : 48.0 KHz
Resolution : 16 bits
Video delay : 8ms
Stream size : 82.5 MiB (8%)
Alignment : Aligned on interleaves
Interleave, duration : 24 ms (0.60 video frame)
Interleave, preload duration : 504 ms
Качество видео: SATRip
Формат видео: AVI
Видео: MPEG4, XviD, 576x432 (4:3), 25.000 fps, 1 495 Kbps (0.240 bit/pixel)
Аудио: MP3, 48.0 KHz, 2 ch, 128 Kbps, CBR
[url=...1486139]Quitte ou Double (800 Mb) [rus] - софтовая короткая версия[/url]
[url=...1050170]Quitte ou Double (694 MB)[/url]
[url=...1550149]Quitte ou Double (740 MB) [rus][/url]
Трекер:  [ 25-Ноя-2016 01:00 ]

Размер .torrent файла 11 KB


Размер: 1.03 GB
Хэш (hash) релиза: 0f8ebebff79eb598251287ba69feb8601069522d
Подписка на обновления:

Еще никто не оставлял запись к записи скачать торрент La Vengeance d'une pute Winner Takes All . Будь первым!

!Обратная связь
//main.js show_panel