Статистика раздачи
Размер:  2 GB   |    Зарегистрирован:  9 месяцев   |    .torrent скачан:  59 раз   |   

Пиры будут получены при скачивании

 

Скачать порно Young Harlots: The Academy / Академия через торрент бесплатно :: UnionPron.org

 
 
Автор Сообщение

Sakura

avatar Sakura


Young Harlots: The Academy / Академия

Альтернативное название:
* Young Harlots 3: The Academy


Год производства: 2005 г.
Released on DVD: October 5, 2006
Страна: UK
Жанр: Gonzo, All Sex & Compilations, Foreign, Oral, Anal, Double Penetration, Ass To Mouth, Facial, Swallow, Creampie, Threesome, Teens/Young Women, Natural Tits, Hardcore, Straight, Europeans, Young Harlots Series
Продолжительность:
02:18:40 (фильм)
00:09:11 (бонус)

Режиссер: Gazzman
Студия: Harmony, Evil Empire

Язык: Английский
Субтитры: Danish, Dutch, French, German, Greek, Portuguese, Spanish, Swedish, Italian

В ролях:
Actresses-
Denice K. (as Denise K.)
Franki [Anal]
Isabel Ice [Anal Facial DP Creampie]
Katy Caro [LezOnly]
Poppy Morgan [Facial]
Sunny Jay (as Sandra) [Anal Facial DP Swallow A2M]
Suzie Best [Facial A2M]

Actors- Ian Tate (as Dirty Dog), Jazz Duro, Mark Sloan, Olivier Sanchez
Scene 1. Sunny Jay, Ian Tate, guy
Scene 2. Denice K., Poppy Morgan, Jazz Duro
Scene 3. Franki, Suzie Best, Olivier Sanchez
Scene 4. Sunny Jay, Ian Tate, Mark Sloan
Scene 5. Katy Caro, Poppy Morgan
Scene 6. Isabel Ice, Ian Tate, guy, Jazz Duro
Описание: Welcome to The Academy where diplomas are awarded for finger-fucking, shaft-sucking and hardcore anal penetration. Watch what the new arrivals will have to do with their horny teachers to get an A plus! It is extremely "hard" to enter this "private" school, but so worth it!!!

Young Harlots the Academy centres on the typical day for a new student and several of her classmates. Lessons are taught in all subjects, from buggery in the headmaster’s library to French Oral in the common room. The masters are always on hand to provide guidance and direction for any wayward pupils and some girls seem to make be making the most of there private study period. To surmise, six thrusting scenes of finishing school depravity culminating in an occult homage to Eyes Wide Shut.
http://www.iafd.com/title.rme/title=Young+Harlots%3A+The+Academy/year=2006/young-harlots%3a-the-academy.htm
Меню: Есть
Доп. материалы и бонусы: http://www.adultdvdemart.com/-/adult_dvd_product_info/filmid=SDVD03255.html/-9D3DCFBE-0EF8-491B-A523-1B3A1728C655

Качество видео: DVD5
Аудио кодек: AC3
Видео: 6800 Kbps, 25.0 fps, 720*576 (or 1024*576 / 16:9), MPG2 = MPEG 2 (SVCD/DVD)
Аудио: 224 Kbps, 48000 Hz, 2 ch, 0x2000 = AC3 DVM [0x80]
Общее
Полное имя : Young Harlots - The Academy (2006) DVD5\VIDEO_TS\VTS_01_1.VOB
Формат : MPEG-PS
Размер файла : 1024 Мбайт
Продолжительность : 33 м.
Общий поток : 4233 Кбит/сек

Видео
Идентификатор : 224 (0xE0)
Формат : MPEG Video
Версия формата : Version 2
Профиль формата : Main@Main
Параметр BVOP формата : Да
Параметр матрицы формата : Выборочная
Параметр GOP формата : M=3, N=15
Продолжительность : 33 м.
Битрейт : 3925 Кбит/сек
Максимальный битрейт : 6800 Кбит/сек
Ширина : 720 пикселей
Высота : 576 пикселей
Соотношение сторон : 16:9
Частота кадров : 25,000 кадров/сек
Стандарт вещания : PAL
Цветовое пространство : YUV
Субдискретизация насыщенности : 4:2:0
Битовая глубина : 8 бит
Тип развёртки : Чересстрочная
Порядок развёртки : Верхнее поле первое
Метод сжатия : С потерями
Бит/(Пиксели*Кадры) : 0.379
Размер потока : 949 Мбайт (93%)

Аудио
Идентификатор : 189 (0xBD)-128 (0x80)
Формат : AC-3
Формат/Информация : Audio Coding 3
Расширение режима : CM (complete main)
Режим смешивания : DVD-Video
Продолжительность : 33 м.
Вид битрейта : Постоянный
Битрейт : 224 Кбит/сек
Каналы : 2 канала
Расположение каналов : Front: L R
Частота : 48,0 КГц
Битовая глубина : 16 бит
Метод сжатия : С потерями
Задержка видео : -80 мс.
Размер потока : 54,2 Мбайт (5%)

Текст #1
Идентификатор : 189 (0xBD)-33 (0x21)
Формат : RLE
Формат/Информация : Run-length encoding
Режим смешивания : DVD-Video

Текст #2
Идентификатор : 189 (0xBD)-34 (0x22)
Формат : RLE
Формат/Информация : Run-length encoding
Режим смешивания : DVD-Video

Текст #3
Идентификатор : 189 (0xBD)-35 (0x23)
Формат : RLE
Формат/Информация : Run-length encoding
Режим смешивания : DVD-Video

Текст #4
Идентификатор : 189 (0xBD)-36 (0x24)
Формат : RLE
Формат/Информация : Run-length encoding
Режим смешивания : DVD-Video

Текст #5
Идентификатор : 189 (0xBD)-37 (0x25)
Формат : RLE
Формат/Информация : Run-length encoding
Режим смешивания : DVD-Video

Текст #6
Идентификатор : 189 (0xBD)-38 (0x26)
Формат : RLE
Формат/Информация : Run-length encoding
Режим смешивания : DVD-Video

Текст #7
Идентификатор : 189 (0xBD)-39 (0x27)
Формат : RLE
Формат/Информация : Run-length encoding
Режим смешивания : DVD-Video

Текст #8
Идентификатор : 189 (0xBD)-40 (0x28)
Формат : RLE
Формат/Информация : Run-length encoding
Режим смешивания : DVD-Video

Текст #9
Идентификатор : 189 (0xBD)-41 (0x29)
Формат : RLE
Формат/Информация : Run-length encoding
Режим смешивания : DVD-Video

Меню










Young Harlots: The Academy [url=...1158872]DVD9[/url] (Автор - [url=...896448]korol_lev123[/url])
Трекер:  [ 09-Ноя-2016 06:30 ]

Размер .torrent файла 12 KB


Размер: 2 GB
Хэш (hash) релиза: d77795153ebe633c17992daeb2b82e0bcacc4559
Подписка на обновления:

Торренты, похожие на Young Harlots: The Academy Академия скачать торрент

Форум Название Автор Размер S L Добавлен
Гонзо-фильмы / Gonzo ·· Young Harlots - The Academy / Молодые Проститутки - Академия (GAZZMAN / Harmony Films) [2006 г.,Sex, Anal, Foreign, Threesomes & More, Schoolgirls WebRip] Sakura 22755264632.12 GB 0 0 1414179043

23:30

24-Окт-14

Еще никто не оставлял запись к записи скачать торрент Young Harlots: The Academy Академия . Будь первым!

!Обратная связь
//main.js show_panel