Статистика раздачи
Размер:  2 GB   |    Зарегистрирован:  4 месяца 8 дней   |    .torrent скачан:  53 раза   |   

Пиры будут получены при скачивании

 

Скачать порно ClubSeventeen - Russian Delights 2 / Teen Toys 1 через торрент бесплатно :: UnionPron.org

 
 
Автор Сообщение

Sakura

avatar Sakura


ClubSeventeen - Russian Delights 2 / Русские наслаждения 2

Год производства: 10/30/2013
Сайт: clubseventeen.com

Жанр: Teeny, lesbian, pussy, anal, dildo
Продолжительность: 01:41:37

Описание: Девушки ласкают себя, друг друга. Используют разные игрушки для своих дырочек.

Доп.инфо
http://members.clubseventeen.com/dvd/view?slug=russian_delights_02 http://www.dvderotik.com/catalog/product_info.php/products_id/39367

Качество видео: DVDRip
Формат видео: WMV
General
Complete name : Russian Delights 2.wmv
Format : Windows Media
File size : 1.52 GiB
Duration : 1h 40mn
Overall bit rate mode : Variable
Overall bit rate : 2 162 Kbps
Maximum Overall bit rate : 2 327 Kbps
Movie name : Russian Delights 02
Encoded date : UTC 2006-02-17 23:38:24.620
Copyright : International Media Company

Video
ID : 2
Format : VC-1
Format profile : MP@ML
Codec ID : WMV3
Codec ID/Info : Windows Media Video 9
Codec ID/Hint : WMV3
Description of the codec : Windows Media Video 9 - Professional
Duration : 1h 40mn
Bit rate mode : Variable
Bit rate : 1 980 Kbps
Width : 720 pixels
Height : 540 pixels
Display aspect ratio : 4:3
Frame rate : 25.000 fps
Color space : YUV
Chroma subsampling : 4:2:0
Bit depth : 8 bits
Scan type : Progressive
Compression mode : Lossy
Bits/(Pixel*Frame) : 0.204
Stream size : 1.39 GiB (92%)
Language : English (US)

Audio
ID : 1
Format : WMA
Format version : Version 2
Codec ID : 161
Codec ID/Info : Windows Media Audio
Description of the codec : Windows Media Audio 9 - 192 kbps, 44 kHz, stereo 2-pass VBR
Duration : 1h 40mn
Bit rate mode : Variable
Bit rate : 188 Kbps
Channel(s) : 2 channels
Sampling rate : 44.1 KHz
Bit depth : 16 bits
Stream size : 135 MiB (9%)
Language : English (US)

ClubSeventeen - Teen Toys 1 / Подростковые игрушки 1

Сайт: clubseventeen.com

Жанр: Teeny, lesbian, pussy, dildo
Продолжительность: 01:56:21

Описание: Девушки ласкают себя, друг друга. Балуются игрушками со своими кисок.

Качество видео: DVDRip
Формат видео: MP4
General
Complete name : Teen Toys 1.mp4
Format : MPEG-4
Format profile : Base Media
Codec ID : isom
File size : 1.58 GiB
Duration : 1h 56mn
Overall bit rate mode : Constant
Overall bit rate : 1 947 Kbps
Encoded date : UTC 2016-08-08 05:36:48
Tagged date : UTC 2016-08-08 05:36:48
Writing application : Lavf57.44.100

Video
ID : 1
Format : MPEG-4 Visual
Format profile : Advanced Simple@L1
Format settings, BVOP : Yes
Format settings, QPel : No
Format settings, GMC : No warppoints
Format settings, Matrix : Default (H.263)
Codec ID : 20
Duration : 1h 56mn
Bit rate mode : Constant
Bit rate : 1 750 Kbps
Width : 720 pixels
Height : 576 pixels
Display aspect ratio : 5:4
Frame rate mode : Constant
Frame rate : 25.000 fps
Standard : PAL
Color space : YUV
Chroma subsampling : 4:2:0
Bit depth : 8 bits
Scan type : Progressive
Compression mode : Lossy
Bits/(Pixel*Frame) : 0.169
Stream size : 1.42 GiB (90%)
Writing library : Lavc57.50.100
Encoded date : UTC 2016-08-08 05:36:48
Tagged date : UTC 2016-08-08 05:36:48

Audio
ID : 2
Format : AC-3
Format/Info : Audio Coding 3
Mode extension : CM (complete main)
Format settings, Endianness : Big
Codec ID : ac-3
Duration : 1h 56mn
Bit rate mode : Constant
Bit rate : 192 Kbps
Channel(s) : 2 channels
Channel positions : Front: L R
Sampling rate : 48.0 KHz
Bit depth : 16 bits
Compression mode : Lossy
Stream size : 160 MiB (10%)
Encoded date : UTC 2016-08-08 05:36:48
Tagged date : UTC 2016-08-08 05:36:48

Раздача будет осуществляться преимущественно вечером или ночью.Не забываем говорить "Спасибо".
Трекер:  [ 14-Окт-2016 07:30 ]

Размер .torrent файла 16 KB


Размер: 2 GB
Хэш (hash) релиза: e1bc25d08fb92dc9af1024868eab974e8db1fdd2
Подписка на обновления:

Еще никто не оставлял запись к записи скачать торрент ClubSeventeen - Russian Delights 2 Teen Toys 1 . Будь первым!

!Обратная связь
//main.js show_panel