Статистика раздачи
Размер:  990 MB   |    Зарегистрирован:  3 месяца 8 дней   |    .torrent скачан:  29 раз   |   

Пиры будут получены при скачивании

 

Скачать порно La Maledizione Del Castello / Die Schwarze Witwe / Черная вдова , Ralf Scott, Max Production / Goldlight) через торрент бесплатно :: UnionPron.org

 
 
Автор Сообщение

Sakura

avatar Sakura


La Maledizione Del Castello | Die Schwarze Witwe | Черная вдова
[url]

[url=...1687536] [/url][url=...1397525] [/url][url=...1490736] [/url][url=...1088220] [/url]
Год производства: 1998 г.
Страна: Italy | Италия
Жанр: Feature
Продолжительность: 01:50:09
Язык:
Немецкий | German
Английский | English
Итальянский | Italian

Режиссер: Alessandro del Mar (Max Bellocchio), Ralf Scott
Студия: Max Production / Goldlight

В ролях: [url=...1687536]Coralie[/url], [url=...1397525]Fovea[/url], Jessica Henty, [url=...1490736]Karen Lancaume[/url], Maya France, [url=...1088220]Olivia del Rio[/url], Bruno SX, Francesco Malcom, Miro Da Nola, Philippe Dean, Reinhardt

Scene Breakdowns:
Scene 1. [url=...1088220]Olivia del Rio[/url], Bruno SX
Scene 2. [url=...1687536]Coralie[/url], [url=...1490736]Karen Lancaume[/url], Philippe Dean
Scene 3. Jessica Henty, Francesco Malcom
Scene 4. [url=...1687536]Coralie[/url], Maya France, Francesco Malcom, Philippe Dean
Scene 5. [url=...1088220]Olivia del Rio[/url], Miro Da Nola
Scene 6. [url=...1490736]Karen Lancaume[/url], Francesco Malcom
Scene 7. [url=...1397525]Fovea[/url], Philippe Dean
Scene 8. [url=...1088220]Olivia del Rio[/url], Reinhardt

Описание: Очаровательной сексуальной Сюзен фатально не везет. Только она положит глаз на достойного молодого человека, только получит с ним кайф в постели, только соберется сходить с ним под венец - р-р-раз! - и нет молодого человека. Приходится стоять под палящим солнцем во всем черном над свежевырытой могилой: Ужас, что делается! Бруно, Карло, Уго, Рейнхард, кто следующий?
General
Format : AVI
Format/Info : Audio Video Interleave
File size : 989 MiB
Duration : 1h 50mn
Overall bit rate : 1 255 Kbps
Writing application : VirtualDubMod 1.5.4.1 (build 2178/release)
Writing library : VirtualDubMod build 2178/release
Video
Format : MPEG-4 Visual
Format profile : Streaming Video@L1
Format settings, BVOP : Yes
Format settings, QPel : No
Format settings, GMC : No warppoints
Format settings, Matrix : Custom
Codec ID : XVID
Codec ID/Hint : XviD
Duration : 1h 50mn
Bit rate : 682 Kbps
Width : 640 pixels
Height : 480 pixels
Display aspect ratio : 4/3
Frame rate : 25.000 fps
Resolution : 24 bits
Colorimetry : 4:2:0
Scan type : Progressive
Bits/(Pixel*Frame) : 0.089
Stream size : 537 MiB (54%)
Writing library : XviD 64
Audio
Format : MPEG Audio
Format version : Version 1
Format profile : Layer 3
Codec ID : 55
Codec ID/Hint : MP3
Duration : 1h 50mn
Bit rate mode : Variable
Bit rate : 181 Kbps
Nominal bit rate : 192 Kbps
Channel(s) : 2 channels
Sampling rate : 48.0 KHz
Resolution : 16 bits
Stream size : 143 MiB (14%)
Alignment : Aligned on interleaves
Interleave, duration : 24 ms (0.60 video frame)
Interleave, preload duration : 497 ms
Writing library : LAME3.98r
Encoding settings : -m j -V 4 -q 2 -lowpass 18.6 --abr 192
Audio
Format : MPEG Audio
Format version : Version 1
Format profile : Layer 3
Codec ID : 55
Codec ID/Hint : MP3
Duration : 1h 50mn
Bit rate mode : Variable
Bit rate : 181 Kbps
Nominal bit rate : 192 Kbps
Channel(s) : 2 channels
Sampling rate : 48.0 KHz
Resolution : 16 bits
Stream size : 143 MiB (14%)
Alignment : Aligned on interleaves
Interleave, duration : 24 ms (0.60 video frame)
Interleave, preload duration : 511 ms
Writing library : LAME3.98r
Encoding settings : -m j -V 4 -q 2 -lowpass 18.6 --abr 192
Audio
Format : MPEG Audio
Format version : Version 1
Format profile : Layer 3
Codec ID : 55
Codec ID/Hint : MP3
Duration : 1h 50mn
Bit rate mode : Variable
Bit rate : 182 Kbps
Nominal bit rate : 192 Kbps
Channel(s) : 2 channels
Sampling rate : 48.0 KHz
Resolution : 16 bits
Stream size : 143 MiB (15%)
Alignment : Aligned on interleaves
Interleave, duration : 24 ms (0.60 video frame)
Interleave, preload duration : 485 ms
Writing library : LAME3.98r
Encoding settings : -m j -V 4 -q 2 -lowpass 18.6 --abr 192
Качество видео: DVDRip
Формат видео: AVI
Видео: MPEG4, XviD, 640x480 (4:3), 25.000 fps, 682 Kbps (0.089 bit/pixel)
Аудио: 3 дорожки с одинаковыми характеристиками: MP3, 48.0 KHz, 2 ch, 181 Kbps, VBR
[url=...736521]La Maledizione Del Castello (697 MB) [ita][/url]
[url=...1337195]La Maledizione Del Castello (1.69 GB) [rus][/url]
Трекер:  [ 09-Окт-2016 16:30 ]

Размер .torrent файла 20 KB


Размер: 990 MB
Хэш (hash) релиза: 056431021c4773a2073b048df814aced70e14298
Подписка на обновления:

Еще никто не оставлял запись к записи скачать торрент La Maledizione Del Castello Die Schwarze Witwe . Будь первым!

!Обратная связь
//main.js show_panel