Статистика раздачи
Размер:  1.94 GB   |    Зарегистрирован:  1 год 2 месяца   |    .torrent скачан:  52 раза   |   

Пиры будут получены при скачивании

 

Скачать порно Messalina / Мессалина через торрент бесплатно :: UnionPron.org

 
 
Автор Сообщение

Sakura

avatar Sakura


Messalina / Мессалина

Год производства: 1996 г.
Страна: Italy
Жанр: Feature, Anal, DP
Продолжительность: 01:33:14
Язык: Английский

Режиссер: Joe D''Amato
Студия: Butterfly Motion Pictures

В ролях: Kelly Trump, Olivia del Rio, Jennifer Loca, Jessica Gabriel, Nicolette, Ursula Moore, Valeria Johnson

Описание: Очаровательная Мессалина обещает отдать свою девственность историку Клавдию, если он познакомит её с императором Калигулой. После убийства Калигулы, по иронии судьбы, Клавдий становится императором, а Мессалина - его женой. Погрузившись в государственные заботы, Клавдий совсем не уделяет времени Мессалине. Императрице ничего не остается, кроме как искать любовные утехи на стороне: в объятиях легионеров, простолюдинов и даже рабов.

Доп. информация: http://www.iafd.com/title.rme/title=messalina+virgin+empress/year=1996/messalina-virgin-empress.htm

Исходник: [url]...1677892[/url]
Спасибо: LIVE.S

Качество видео: DVDRip-AVC
Формат видео: MKV
Видео: х264 | 688x532 | 25 кадров/сек | 2728 Кбит/сек | 0.298
Аудио: AC-3 | 48,0 КГц | 2 канала | 192 Кбит/сек
Формат : Matroska
Версия формата : Version 2
Размер файла : 1,94 Гбайт
Продолжительность : 1 ч. 33 м.
Общий поток : 2979 Кбит/сек
Дата кодирования : UTC 2016-09-11 17:18:09
Программа кодирования : mkvmerge v9.2.0 (''Photograph'') 32bit
Библиотека кодирования : libebml v1.3.3 + libmatroska v1.4.4
Attachments : poster.jpg

Видео
Идентификатор : 1
Формат : AVC
Формат/Информация : Advanced Video Codec
Профиль формата : High@L3.1
Параметр CABAC формата : Да
Параметр ReFrames формата : 8 кадров
Идентификатор кодека : V_MPEG4/ISO/AVC
Продолжительность : 1 ч. 33 м.
Битрейт : 2728 Кбит/сек
Ширина : 688 пикселей
Высота : 532 пикселя
Соотношение сторон : 1,293
Режим частоты кадров : Постоянный
Частота кадров : 25,000 кадров/сек
Цветовое пространство : YUV
Субдискретизация насыщенности : 4:2:0
Битовая глубина : 8 бит
Тип развёртки : Прогрессивная
Бит/(Пиксели*Кадры) : 0.298
Размер потока : 1,78 Гбайт (92%)
Библиотека кодирования : x264 core 148 r2705 3f5ed56
Настройки программы : cabac=1 / ref=8 / deblock=1:0:0 / analyse=0x3:0x113 / me=umh / subme=8 / psy=1 / psy_rd=0.75:0.00 / mixed_ref=1 / me_range=16 / chroma_me=1 / trellis=2 / 8x8dct=1 / cqm=0 / deadzone=21,11 / fast_pskip=1 / chroma_qp_offset=-2 / threads=4 / lookahead_threads=1 / sliced_threads=0 / nr=0 / decimate=1 / interlaced=0 / bluray_compat=0 / constrained_intra=0 / bframes=5 / b_pyramid=2 / b_adapt=2 / b_bias=0 / direct=1 / weightb=1 / open_gop=0 / weightp=2 / keyint=250 / keyint_min=25 / scenecut=40 / intra_refresh=0 / rc=crf / mbtree=0 / crf=17.0 / qcomp=0.70 / qpmin=0 / qpmax=69 / qpstep=4 / ip_ratio=1.40 / pb_ratio=1.30 / aq=1:0.60
Default : Да
Forced : Нет

Аудио
Идентификатор : 2
Формат : AC-3
Формат/Информация : Audio Coding 3
Расширение режима : CM (complete main)
Параметр Endianness формата : Big
Идентификатор кодека : A_AC3
Продолжительность : 1 ч. 33 м.
Вид битрейта : Постоянный
Битрейт : 192 Кбит/сек
Каналы : 2 канала
Расположение каналов : Front: L R
Частота : 48,0 КГц
Частота кадров : 31,250 кадров/сек (1536 spf)
Метод сжатия : С потерями
Размер потока : 128 Мбайт (6%)
Default : Да
Forced : Нет

Меню
00:01:00.000 : :Scene 1. Ursula Moore
00:09:54.000 : :Scene 2. Jessica Gabriel & Kelly Trump & Olivia del Rio
00:12:20.000 : :Scene 3. Olivia del Rio [anal]
00:13:15.000 : :Scene 4. Kelly Trump [ana]
00:30:13.000 : :Scene 5. Kelly Trump [DP]
00:40:44.000 : :Scene 6. Kelly Trump [anal], Ursula Moore, Valeria Johnson
00:55:40.000 : :Scene 7. Kelly Trump, Jennifer Loca
01:11:11.000 : :Scene 8. Kelly Trump [anal]
01:22:08.000 : :Scene 9. Kelly Trump [anal]
[url]...985985[/url]
[url]...1649024[/url]
[url]...265437[/url]
Трекер:  [ 12-Сен-2016 16:00 ]

Размер .torrent файла 20 KB


Размер: 1.94 GB
Хэш (hash) релиза: 1912b0350a35292f06cc04cb2651b52d45b23768
Подписка на обновления:

Еще никто не оставлял запись к записи скачать торрент Messalina Мессалина . Будь первым!

!Обратная связь
//main.js show_panel