Статистика раздачи
Размер:  253 MB   |    Зарегистрирован:  11 месяцев   |    .torrent скачан:  4 раза   |   

Пиры будут получены при скачивании

 

Скачать порно Brandi Love & Kirsten Price через торрент бесплатно :: UnionPron.org

 
 
Автор Сообщение

Sakura

avatar Sakura


Brandi Love & Kirsten Price & Keiran Lee - Two Girls, One Cock



Имя актрисы: Brandi Love & Kirsten Price
Название ролика: Two Girls, One Cock
Номер на сайте: 7351

Год производства: 7 мая 2013 г.
Жанр: Amateur, Big Tits, Blonde, Blowjob (POV), Brunette, Cowgirl (POV), Facial (POV), MILF, Threesome
Продолжительность: 00:29:35

Описание: When porn stars play at home, things tend to get real raunchy, and the more, the merrier! In this threesome everyone gets an equal piece of the action and you''ve never seen Kirsten Price and Brandi Love be quite this dirty. They love taking turns sharing Keiran''s big cock while fingering and licking each other''s cunts. And of course they want to capture the whole thing on film for both us and them to enjoy later.

Формат видео: MP4
Видео: MPEG4 Video (H264) 854x480 29.97fps 1001kbps
Аудио: AAC 48000Hz stereo 127kbps

General
Complete name : zzs_ppov_brandi_kirsten_kl102512_480p_1000.mp4
Format : MPEG-4
Format profile : Base Media
Codec ID : isom
File size : 253 MiB
Duration : 29mn 35s
Overall bit rate : 1 193 Kbps
Writing application : Lavf54.37.100

Video
ID : 1
Format : AVC
Format/Info : Advanced Video Codec
Format profile : High@L3.1
Format settings, CABAC : Yes
Format settings, ReFrames : 5 frames
Codec ID : avc1
Codec ID/Info : Advanced Video Coding
Duration : 29mn 35s
Bit rate : 1 000 Kbps
Width : 854 pixels
Height : 480 pixels
Display aspect ratio : 16:9
Frame rate mode : Constant
Frame rate : 29.970 fps
Color space : YUV
Chroma subsampling : 4:2:0
Bit depth : 8 bits
Scan type : Progressive
Bits/(Pixel*Frame) : 0.081
Stream size : 212 MiB (84%)
Writing library : x264 core 128 r2216 198a7ea
Encoding settings : cabac=1 / ref=5 / deblock=1:0:0 / analyse=0x3:0x113 / me=umh / subme=8 / psy=1 / psy_rd=1.00:0.00 / mixed_ref=1 / me_range=16 / chroma_me=1 / trellis=1 / 8x8dct=1 / cqm=0 / deadzone=21,11 / fast_pskip=1 / chroma_qp_offset=-2 / threads=36 / lookahead_threads=6 / sliced_threads=0 / nr=0 / decimate=1 / interlaced=0 / bluray_compat=0 / constrained_intra=0 / bframes=3 / b_pyramid=2 / b_adapt=2 / b_bias=0 / direct=3 / weightb=1 / open_gop=0 / weightp=2 / keyint=60 / keyint_min=6 / scenecut=40 / intra_refresh=0 / rc_lookahead=50 / rc=abr / mbtree=1 / bitrate=1000 / ratetol=1.0 / qcomp=0.60 / qpmin=0 / qpmax=69 / qpstep=4 / ip_ratio=1.40 / aq=1:1.00
Tagged date : UTC 2013-02-27 14:32:45

Audio
ID : 2
Format : AAC
Format/Info : Advanced Audio Codec
Format profile : LC
Codec ID : 40
Duration : 29mn 35s
Duration_LastFrame : 33ms
Bit rate mode : Constant
Bit rate : 128 Kbps
Channel(s) : 2 channels
Channel positions : Front: L R
Sampling rate : 48.0 KHz
Compression mode : Lossy
Stream size : 27.1 MiB (11%)
Tagged date : UTC 2013-02-27 14:32:45

Other #1
ID : 65536
Type : Hint
Format : RTP
Codec ID : rtp
Duration : 29mn 35s
Encoded date : UTC 2013-02-27 14:32:28
Tagged date : UTC 2013-02-27 14:32:45

Other #2
ID : 65537
Type : Hint
Format : RTP
Codec ID : rtp
Duration : 29mn 35s
Encoded date : UTC 2013-02-27 14:32:43
Tagged date : UTC 2013-02-27 14:32:45
Bit rate mode : VBR
Трекер:  [ 28-Авг-2016 16:30 ]

Размер .torrent файла 20 KB


Размер: 253 MB
Хэш (hash) релиза: d29afc1d4adba2f64ba6237f6c578e97b66ee16c
Подписка на обновления:

Еще никто не оставлял запись к записи скачать торрент Brandi Love & Kirsten Price . Будь первым!

!Обратная связь
//main.js show_panel