Статистика раздачи
Размер:  271 MB   |    Зарегистрирован:  1 год   |    .torrent скачан:  3 раза   |   

Пиры будут получены при скачивании

 

Скачать порно Natasha Starr через торрент бесплатно :: UnionPron.org

 
 
Автор Сообщение

Sakura

avatar Sakura


Natasha Starr & Keiran Lee - Afterhours Fuck



Имя актрисы: Natasha Starr
Название ролика: Afterhours Fuck
Номер на сайте: 7315

Год производства: 7 мая 2013 г.
Жанр: Blonde, Blowjob (POV), Feet, Gonzo, Natural Tits, POV
Продолжительность: 00:17:04

Описание: Polish porn star, Natasha Star, is down to fuck after a night of clubbing, so she goes in search of the biggest cock in town. She makes her way to Keiran''s place and in minutes her clothes are on the floor and his balls are in her mouth. Euro-babes like Natasha do''t waste time when it comes to getting off. They know what they want and aren''t afraid to take it.

Формат видео: MP4
Видео: MPEG4 Video (H264) 854x480 29.97fps 1988kbps
Аудио: AAC 48000Hz stereo 127kbps

General
Complete name : zzs_ppov_natasha_starr_kl110212_480p_2000.mp4
Format : MPEG-4
Format profile : Base Media
Codec ID : isom
File size : 271 MiB
Duration : 17mn 4s
Overall bit rate : 2 220 Kbps
Writing application : Lavf54.61.101

Video
ID : 1
Format : AVC
Format/Info : Advanced Video Codec
Format profile : High@L3.1
Format settings, CABAC : Yes
Format settings, ReFrames : 5 frames
Codec ID : avc1
Codec ID/Info : Advanced Video Coding
Duration : 17mn 3s
Bit rate : 2 000 Kbps
Width : 854 pixels
Height : 480 pixels
Display aspect ratio : 16:9
Frame rate mode : Constant
Frame rate : 29.970 fps
Color space : YUV
Chroma subsampling : 4:2:0
Bit depth : 8 bits
Scan type : Progressive
Bits/(Pixel*Frame) : 0.163
Stream size : 243 MiB (90%)
Writing library : x264 core 129 r2245 bc13772
Encoding settings : cabac=1 / ref=5 / deblock=1:0:0 / analyse=0x3:0x113 / me=umh / subme=8 / psy=1 / psy_rd=1.00:0.00 / mixed_ref=1 / me_range=16 / chroma_me=1 / trellis=1 / 8x8dct=1 / cqm=0 / deadzone=21,11 / fast_pskip=1 / chroma_qp_offset=-2 / threads=36 / lookahead_threads=6 / sliced_threads=0 / nr=0 / decimate=1 / interlaced=0 / bluray_compat=0 / constrained_intra=0 / bframes=3 / b_pyramid=2 / b_adapt=2 / b_bias=0 / direct=3 / weightb=1 / open_gop=0 / weightp=2 / keyint=60 / keyint_min=6 / scenecut=40 / intra_refresh=0 / rc_lookahead=50 / rc=abr / mbtree=1 / bitrate=2000 / ratetol=1.0 / qcomp=0.60 / qpmin=0 / qpmax=69 / qpstep=4 / ip_ratio=1.40 / aq=1:1.00
Tagged date : UTC 2013-02-27 07:42:20

Audio
ID : 2
Format : AAC
Format/Info : Advanced Audio Codec
Format profile : LC
Codec ID : 40
Duration : 17mn 4s
Duration_LastFrame : 33ms
Bit rate mode : Constant
Bit rate : 128 Kbps
Channel(s) : 2 channels
Channel positions : Front: L R
Sampling rate : 48.0 KHz
Compression mode : Lossy
Stream size : 15.6 MiB (6%)
Tagged date : UTC 2013-02-27 07:42:20

Other #1
ID : 65536
Type : Hint
Format : RTP
Codec ID : rtp
Duration : 17mn 3s
Encoded date : UTC 2013-02-27 07:42:18
Tagged date : UTC 2013-02-27 07:42:20

Other #2
ID : 65537
Type : Hint
Format : RTP
Codec ID : rtp
Duration : 17mn 4s
Encoded date : UTC 2013-02-27 07:42:19
Tagged date : UTC 2013-02-27 07:42:20
Bit rate mode : VBR
Трекер:  [ 28-Авг-2016 01:00 ]

Размер .torrent файла 11 KB


Размер: 271 MB
Хэш (hash) релиза: 5941bb1d9b460ad7878deeeaeeccc09ab3fda9e6
Подписка на обновления:

Еще никто не оставлял запись к записи скачать торрент Natasha Starr . Будь первым!

!Обратная связь
//main.js show_panel