Статистика раздачи
Размер:  243 MB   |    Зарегистрирован:  1 год 2 месяца   |    .torrent скачан:  7 раз   |   

Пиры будут получены при скачивании

 

Скачать порно Jacky Joy через торрент бесплатно :: UnionPron.org

 
 
Автор Сообщение

Sakura

avatar Sakura


Jacky Joy & Keiran Lee - Jacky Joy''s Joyride



Имя актрисы: Jacky Joy
Название ролика: Jacky Joy''s Joyride
Номер на сайте: 7314

Год производства: 7 мая 2013 г.
Жанр: Big Tits, Blonde, Blowjob (POV), Gonzo, POV, Tittyfuck (POV)
Продолжительность: 00:15:30

Описание: Porn stars are always horny and ready to fuck, and Jacky Joy is no exception. Before going out she needs a dicking and Keiran Lee lends her his cock to play with as she pleases. With her big tits and sweet ass, she always looks sextastic, which is why she doesn''t mind that he''s filming her every move on his phone.

Формат видео: MP4
Видео: MPEG4 Video (H264) 854x480 29.97fps 1980kbps
Аудио: AAC 48000Hz stereo 127kbps

General
Complete name : zzs_ppov_jacky_joy_kl100512_480p_2000.mp4
Format : MPEG-4
Format profile : Base Media
Codec ID : isom
File size : 243 MiB
Duration : 15mn 29s
Overall bit rate : 2 196 Kbps
Writing application : Lavf54.37.100

Video
ID : 1
Format : AVC
Format/Info : Advanced Video Codec
Format profile : High@L3.1
Format settings, CABAC : Yes
Format settings, ReFrames : 5 frames
Codec ID : avc1
Codec ID/Info : Advanced Video Coding
Duration : 15mn 23s
Bit rate : 2 000 Kbps
Width : 854 pixels
Height : 480 pixels
Display aspect ratio : 16:9
Frame rate mode : Constant
Frame rate : 29.970 fps
Color space : YUV
Chroma subsampling : 4:2:0
Bit depth : 8 bits
Scan type : Progressive
Bits/(Pixel*Frame) : 0.163
Stream size : 218 MiB (90%)
Writing library : x264 core 128 r2216 198a7ea
Encoding settings : cabac=1 / ref=5 / deblock=1:0:0 / analyse=0x3:0x113 / me=umh / subme=8 / psy=1 / psy_rd=1.00:0.00 / mixed_ref=1 / me_range=16 / chroma_me=1 / trellis=1 / 8x8dct=1 / cqm=0 / deadzone=21,11 / fast_pskip=1 / chroma_qp_offset=-2 / threads=36 / lookahead_threads=6 / sliced_threads=0 / nr=0 / decimate=1 / interlaced=0 / bluray_compat=0 / constrained_intra=0 / bframes=3 / b_pyramid=2 / b_adapt=2 / b_bias=0 / direct=3 / weightb=1 / open_gop=0 / weightp=2 / keyint=60 / keyint_min=6 / scenecut=40 / intra_refresh=0 / rc_lookahead=50 / rc=abr / mbtree=1 / bitrate=2000 / ratetol=1.0 / qcomp=0.60 / qpmin=0 / qpmax=69 / qpstep=4 / ip_ratio=1.40 / aq=1:1.00
Tagged date : UTC 2013-02-27 08:44:09

Audio
ID : 2
Format : AAC
Format/Info : Advanced Audio Codec
Format profile : LC
Codec ID : 40
Duration : 15mn 29s
Duration_LastFrame : 33ms
Bit rate mode : Constant
Bit rate : 128 Kbps
Channel(s) : 2 channels
Channel positions : Front: L R
Sampling rate : 48.0 KHz
Compression mode : Lossy
Stream size : 14.2 MiB (6%)
Tagged date : UTC 2013-02-27 08:44:09

Other #1
ID : 65536
Type : Hint
Format : RTP
Codec ID : rtp
Duration : 15mn 23s
Encoded date : UTC 2013-02-27 08:43:57
Tagged date : UTC 2013-02-27 08:44:09

Other #2
ID : 65537
Type : Hint
Format : RTP
Codec ID : rtp
Duration : 15mn 29s
Encoded date : UTC 2013-02-27 08:44:09
Tagged date : UTC 2013-02-27 08:44:09
Bit rate mode : VBR
Трекер:  [ 28-Авг-2016 01:00 ]

Размер .torrent файла 19 KB


Размер: 243 MB
Хэш (hash) релиза: a7b26ba755c8657938c0f74c98494478ad589490
Подписка на обновления:

Торренты, похожие на Jacky Joy скачать торрент

Форум Название Автор Размер S L Добавлен
Сайтрипы 2013 (HD Video) / SiteRip's 2013 (HD Video) ·· Jacky Joy & Keiran Lee (Jacky Joy's Joyride / 13.05.07) Pornstar POV Jacky Joy's Joyride [2013 г., Sex,Amateur,POV, 1080p] Sakura 13862482551.29 GB 0 0 1426400034

10:13

15-Мар-15

Еще никто не оставлял запись к записи скачать торрент Jacky Joy . Будь первым!

!Обратная связь
//main.js show_panel