Статистика раздачи
Размер:  2 GB   |    Зарегистрирован:  6 месяцев   |    .torrent скачан:  6 раз   |   

Пиры будут получены при скачивании

 

Скачать порно Zoey Holiday через торрент бесплатно :: UnionPron.org

 
 
Автор Сообщение

Sakura

avatar Sakura


Zoey Holiday & Ramon - Female Sexual Arousal: A Doctor''s Touch



Имя актрисы: Zoey Holiday
Название ролика: Female Sexual Arousal: A Doctor''s Touch
Номер на сайте: 6356

Год производства: 5 апреля 2012 г.
Жанр: Anal, Big Tits, Doctor/Nurse, MILF, Medium Ass, Sex Toys, Squirt
Продолжительность: 00:39:13

Описание: Doctor Ramon is giving a seminar on Female Sexual Arousal to a group of young med students, eager to learn about female anatomy. While the students take notes, Doctor Ramon exams his female specimen, Zoey on the table. After showing the students her sexual organs, he goes on to stimulate them using a variety of medical devices. Zoey get aroused very quickly and so is Doctor Ramon. Soon enough he replaces the toys by his own personal one.

Тип HD видео: 720p
Формат видео: MP4
Видео: MPEG4 Video (H264) 1280x720 29.97fps 7984kbps
Аудио: AAC 48000Hz stereo 108kbps

General
Complete name : da_zoey_holiday_720p_8000.mp4
Format : MPEG-4
Format profile : Base Media
Codec ID : isom
File size : 2.31 GiB
Duration : 39mn 13s
Overall bit rate mode : Variable
Overall bit rate : 8 435 Kbps
Encoded date : UTC 1970-01-01 00:00:00
Tagged date : UTC 1970-01-01 00:00:00
Writing application : Lavf52.102.0

Video
ID : 1
Format : AVC
Format/Info : Advanced Video Codec
Format profile : High@L4.1
Format settings, CABAC : Yes
Format settings, ReFrames : 5 frames
Codec ID : avc1
Codec ID/Info : Advanced Video Coding
Duration : 39mn 13s
Bit rate : 8 000 Kbps
Width : 1 280 pixels
Height : 720 pixels
Display aspect ratio : 16:9
Frame rate mode : Constant
Frame rate : 29.970 fps
Color space : YUV
Chroma subsampling : 4:2:0
Bit depth : 8 bits
Scan type : Progressive
Bits/(Pixel*Frame) : 0.290
Stream size : 2.19 GiB (95%)
Writing library : x264 core 114 r1913 5fd3dce
Encoding settings : cabac=1 / ref=5 / deblock=1:0:0 / analyse=0x3:0x113 / me=umh / subme=8 / psy=1 / psy_rd=1.00:0.00 / mixed_ref=1 / me_range=16 / chroma_me=1 / trellis=1 / 8x8dct=1 / cqm=0 / deadzone=21,11 / fast_pskip=1 / chroma_qp_offset=-2 / threads=12 / sliced_threads=0 / nr=0 / decimate=1 / interlaced=0 / constrained_intra=0 / bframes=3 / b_pyramid=2 / b_adapt=2 / b_bias=0 / direct=3 / weightb=1 / open_gop=0 / weightp=2 / keyint=60 / keyint_min=25 / scenecut=40 / intra_refresh=0 / rc_lookahead=50 / rc=abr / mbtree=1 / bitrate=8000 / ratetol=1.0 / qcomp=0.60 / qpmin=10 / qpmax=51 / qpstep=4 / ip_ratio=1.41 / aq=1:1.00
Language : English
Encoded date : UTC 1970-01-01 00:00:00
Tagged date : UTC 2012-03-26 03:42:13

Audio
ID : 2
Format : AAC
Format/Info : Advanced Audio Codec
Format profile : LC
Codec ID : 40
Duration : 39mn 13s
Bit rate mode : Variable
Bit rate : 108 Kbps
Channel(s) : 2 channels
Channel positions : Front: L R
Sampling rate : 48.0 KHz
Compression mode : Lossy
Stream size : 30.3 MiB (1%)
Language : English
Encoded date : UTC 1970-01-01 00:00:00
Tagged date : UTC 2012-03-26 03:42:13

Other #1
ID : 65536
Type : Hint
Format : RTP
Codec ID : rtp
Duration : 39mn 13s
Encoded date : UTC 2012-03-26 03:41:14
Tagged date : UTC 2012-03-26 03:42:13

Other #2
ID : 65537
Type : Hint
Format : RTP
Codec ID : rtp
Duration : 39mn 12s
Encoded date : UTC 2012-03-26 03:42:12
Tagged date : UTC 2012-03-26 03:42:13
Bit rate mode : VBR
Трекер:  [ 19-Авг-2016 22:30 ]

Размер .torrent файла 12 KB


Размер: 2 GB
Хэш (hash) релиза: 3fedbb2e4d8a93bfd30b3818f6266f606b7157a5
Подписка на обновления:

Торренты, похожие на Zoey Holiday скачать торрент

Форум Название Автор Размер S L Добавлен
Сайтрипы 2012 / SiteRip's 2012 ·· Zoey Holiday (Female Sexual Arousal: A Doctor's Touch / 6356) [April 05, 2012 г., Big tits, Squirting, Toys, Busty, Doctor, 1080p] [MP4] Sakura 37001783113.45 GB 0 0 1380302067

21:14

27-Сен-13

Сайтрипы 2012 / SiteRip's 2012 ·· Zoey Holiday (Female Sexual Arousal: A Doctor's Touch / 05.04.2012) [Big tits, Squirting, Toys, Busty, Doctor] [720p] Sakura 24812263812.31 GB 0 0 1380264056

10:40

27-Сен-13

Еще никто не оставлял запись к записи скачать торрент Zoey Holiday . Будь первым!

!Обратная связь
//main.js show_panel