Статистика раздачи
Размер:  1.99 GB   |    Зарегистрирован:  6 месяцев   |    .torrent скачан:  5 раз   |   

Пиры будут получены при скачивании

 

Скачать порно Krissy Lynn через торрент бесплатно :: UnionPron.org

 
 
Автор Сообщение

Sakura

avatar Sakura


Krissy Lynn & Mick Blue - Stalker



Имя актрисы: Krissy Lynn
Название ролика: Stalker
Номер на сайте: 6151

Год производства: 11 января 2012 г.
Жанр: Anal, Big Tits, Blonde, Bubble Butt, Sex Toys
Продолжительность: 00:33:26

Описание: Mick is a famous actor adored and obsessed over by his fans. One day he comes home to find a DVD mysteriously left on his coffee table. Curiosity getting the better of him, Mick watches the DVD and sees Krissy fucking herself in the ass with a dildo in his bedroom. Krissy has clearly taken her love of Mick to a whole new level. Mick goes up to his room to investigate and finds Krissy waiting on his bed. Krissy won''t leave until Mick pounds her asshole. Mick has no choice but to wreck her asshole with his massive cock if he ever wants her to leave.

Тип HD видео: 1080p
Формат видео: MP4
Видео: MPEG4 Video (H264) 1920x1080 29.97fps 8015kbps
Аудио: AAC 48000Hz stereo 165kbp

General
Complete name : bblib_krissy_lynn02_1080p_8000.mp4
Format : MPEG-4
Format profile : Base Media
Codec ID : isom
File size : 1.99 GiB
Duration : 33mn 26s
Overall bit rate mode : Variable
Overall bit rate : 8 527 Kbps
Encoded date : UTC 1970-01-01 00:00:00
Tagged date : UTC 1970-01-01 00:00:00
Writing application : Lavf52.31.0

Video
ID : 1
Format : AVC
Format/Info : Advanced Video Codec
Format profile : High@L4
Format settings, CABAC : Yes
Format settings, ReFrames : 4 frames
Codec ID : avc1
Codec ID/Info : Advanced Video Coding
Duration : 33mn 26s
Duration_FirstFrame : -100ms
Bit rate : 8 016 Kbps
Width : 1 920 pixels
Height : 1 080 pixels
Display aspect ratio : 16:9
Frame rate mode : Variable
Frame rate : 29.970 fps
Minimum frame rate : 7.493 fps
Maximum frame rate : 29.970 fps
Color space : YUV
Chroma subsampling : 4:2:0
Bit depth : 8 bits
Scan type : Progressive
Bits/(Pixel*Frame) : 0.129
Stream size : 1.87 GiB (94%)
Language : English
Encoded date : UTC 1970-01-01 00:00:00
Tagged date : UTC 2011-12-22 10:05:52

Audio
ID : 2
Format : AAC
Format/Info : Advanced Audio Codec
Format profile : LC
Codec ID : 40
Duration : 33mn 26s
Bit rate mode : Variable
Bit rate : 165 Kbps
Channel(s) : 2 channels
Channel positions : Front: L R
Sampling rate : 48.0 KHz
Compression mode : Lossy
Stream size : 39.6 MiB (2%)
Language : English
Encoded date : UTC 1970-01-01 00:00:00
Tagged date : UTC 2011-12-22 10:05:52

Other #1
ID : 65536
Type : Hint
Format : RTP
Codec ID : rtp
Duration : 33mn 26s
Encoded date : UTC 2011-12-22 10:02:08
Tagged date : UTC 2011-12-22 10:05:52
Duration_FirstFrame : -100

Other #2
ID : 65537
Type : Hint
Format : RTP
Codec ID : rtp
Duration : 33mn 26s
Encoded date : UTC 2011-12-22 10:05:48
Tagged date : UTC 2011-12-22 10:05:52
Bit rate mode : VBR
Трекер:  [ 14-Авг-2016 16:00 ]

Размер .torrent файла 20 KB


Размер: 1.99 GB
Хэш (hash) релиза: 9f594294957cc1467de0f7fb0f001e7d3703ac1e
Подписка на обновления:

Торренты, похожие на Krissy Lynn скачать торрент

Форум Название Автор Размер S L Добавлен
Сайтрипы 2014 / SiteRip's 2014 ·· Krissy Lynn (Last Stop, Buttfuck Nowhere / 01.07.14) [2014 г., Anal,Red Head,Big Tits,Ass Worship,Big Tits Worship, 1080p] Sakura 24593340432.29 GB 0 0 1404190993

09:03

1-Июл-14

Сайтрипы 2014 / SiteRip's 2014 ·· Krissy Lynn ( Last Stop, Buttfuck Nowhere / 01.07.14) [2014 г., Anal, Red Head, Big Tits, Ass Worship, Big Tits Worship] Sakura 434207553414 MB 0 0 1404189128

08:32

1-Июл-14

Сайтрипы 2014 / SiteRip's 2014 ·· Krissy Lynn ( Last Stop, Buttfuck Nowhere / 01.07.14) [2014 г., Anal, Red Head, Big Tits, Ass Worship, Big Tits Worship, 720p] Sakura 16493519941.54 GB 0 0 1404189105

08:31

1-Июл-14

Сайтрипы 2012 / SiteRip's 2012 ·· KRISSY LYNN (Stalker / 6151 / 11.01.12) (Anal, Big ass, Ass to Mouth, Big tits, Fasial, Hardcore, 2012) [720p] HDV Sakura 1033339326985 MB 0 0 1380258205

09:03

27-Сен-13

Сайтрипы 1991-2010 / SiteRip's 1991-2010 ·· Krissy Lynn (Did You Miss Me? / 29.08.12) [2012г., Anal, Big Tits, Blonde, Ass Worship, Medium Ass, 720p] Sakura 21773577722.03 GB 0 0 1346424300

18:45

31-Авг-12

Сайтрипы 2012 / SiteRip's 2012 ·· Krissy Lynn (Did You Miss Me? / 29.08.2012) [Ass Worship, Anal, Blonde, Big Tits] [1080p] Sakura 32420861973.02 GB 0 0 1346424300

18:45

31-Авг-12

Сайтрипы 2012 / SiteRip's 2012 ·· Krissy Lynn (Stalker / 11.01.2012) [Ass licking, Ass to mouth, Big dicks, Blonde, Blowjob, Deepthroat, Facial, Masturbation, Spanking, Anal] [1080p] Sakura 21385879751.99 GB 0 0 1380376102

17:48

28-Сен-13

Сайтрипы 2011 / SiteRip's 2011 ·· KRISSY LYNN (Take Me Seriously..! / 5569 / 06.08.11) (Anal, Big tits, Big ass, Blonde, Ass licking, Creampie, Hardcore, 2011) [1080p] HDV Sakura 27179178282.53 GB 0 0 1378789729

09:08

10-Сен-13

Еще никто не оставлял запись к записи скачать торрент Krissy Lynn . Будь первым!

!Обратная связь
//main.js show_panel