Статистика раздачи
Размер:  2 GB   |    Зарегистрирован:  1 год 3 месяца   |    .torrent скачан:  4 раза   |   

Пиры будут получены при скачивании

 

Скачать порно Krissy Lynn через торрент бесплатно :: UnionPron.org

 
 
Автор Сообщение

Sakura

avatar Sakura


Krissy Lynn & Tommy Gunn - This Is A Bust!



Имя актрисы: Krissy Lynn
Название ролика: This Is A Bust!
Номер на сайте: 6294

Год производства: 7 марта 2012 г.
Жанр: Big Tits, Big Tits Worship, Blonde, Bubble Butt, Creampie, Police, Uniform
Продолжительность: 00:34:22

Описание: Krissy Lynn is a small town Sheriff who has just been given word that there are a bunch of slick city smut peddlers allegedly shooting porn illegally in her fine town. With a camera crew following her as witness, Sheriff Lynn busts onto the set only to find a pathetically mediocre porno being shot...and even worse...they have all of the proper paperwork and permits to shoot it! To avoid further embarrassment, she decidely remains on set to ensure no "illegalities" occur and soon finds herself giving pointers and eventually PARTICIPATING in the scene itself!! Join Brazzers'' on a hot and wild titty ride in "THIS IS A BUST!"

Тип HD видео: 1080p
Формат видео: MP4
Видео: MPEG4 Video (H264) 1920x1080 29.97fps 11958kbps
Аудио: AAC 48000Hz stereo 127kbps

General
Complete name : btiu_krissy_lynn02_1080p_12000.mp4
Format : MPEG-4
Format profile : Base Media
Codec ID : isom
File size : 3.02 GiB
Duration : 34mn 21s
Overall bit rate mode : Variable
Overall bit rate : 12.6 Mbps
Encoded date : UTC 1970-01-01 00:00:00
Tagged date : UTC 1970-01-01 00:00:00
Writing application : Lavf52.102.0

Video
ID : 1
Format : AVC
Format/Info : Advanced Video Codec
Format profile : High@L4.1
Format settings, CABAC : Yes
Format settings, ReFrames : 5 frames
Codec ID : avc1
Codec ID/Info : Advanced Video Coding
Duration : 34mn 21s
Bit rate : 12.0 Mbps
Width : 1 920 pixels
Height : 1 080 pixels
Display aspect ratio : 16:9
Frame rate mode : Constant
Frame rate : 29.970 fps
Color space : YUV
Chroma subsampling : 4:2:0
Bit depth : 8 bits
Scan type : Progressive
Bits/(Pixel*Frame) : 0.193
Stream size : 2.87 GiB (95%)
Writing library : x264 core 114 r1913 5fd3dce
Encoding settings : cabac=1 / ref=5 / deblock=1:0:0 / analyse=0x3:0x113 / me=umh / subme=8 / psy=1 / psy_rd=1.00:0.00 / mixed_ref=1 / me_range=16 / chroma_me=1 / trellis=1 / 8x8dct=1 / cqm=0 / deadzone=21,11 / fast_pskip=1 / chroma_qp_offset=-2 / threads=12 / sliced_threads=0 / nr=0 / decimate=1 / interlaced=0 / constrained_intra=0 / bframes=3 / b_pyramid=2 / b_adapt=2 / b_bias=0 / direct=3 / weightb=1 / open_gop=0 / weightp=2 / keyint=60 / keyint_min=25 / scenecut=40 / intra_refresh=0 / rc_lookahead=50 / rc=abr / mbtree=1 / bitrate=12000 / ratetol=1.0 / qcomp=0.60 / qpmin=10 / qpmax=51 / qpstep=4 / ip_ratio=1.41 / aq=1:1.00
Language : English
Encoded date : UTC 1970-01-01 00:00:00
Tagged date : UTC 2012-03-01 10:04:51

Audio
ID : 2
Format : AAC
Format/Info : Advanced Audio Codec
Format profile : LC
Codec ID : 40
Duration : 34mn 21s
Bit rate mode : Variable
Bit rate : 128 Kbps
Channel(s) : 2 channels
Channel positions : Front: L R
Sampling rate : 48.0 KHz
Compression mode : Lossy
Stream size : 31.4 MiB (1%)
Language : English
Encoded date : UTC 1970-01-01 00:00:00
Tagged date : UTC 2012-03-01 10:04:51

Other #1
ID : 65536
Type : Hint
Format : RTP
Codec ID : rtp
Duration : 34mn 21s
Encoded date : UTC 2012-03-01 10:03:31
Tagged date : UTC 2012-03-01 10:04:51

Other #2
ID : 65537
Type : Hint
Format : RTP
Codec ID : rtp
Duration : 34mn 21s
Encoded date : UTC 2012-03-01 10:04:50
Tagged date : UTC 2012-03-01 10:04:51
Bit rate mode : VBR
Трекер:  [ 14-Авг-2016 14:30 ]

Размер .torrent файла 15 KB


Размер: 2 GB
Хэш (hash) релиза: 5bdae27d80f9319fd75b13bf8df8a70b952ebb68
Подписка на обновления:

Торренты, похожие на Krissy Lynn скачать торрент

Форум Название Автор Размер S L Добавлен
Сайтрипы 1991-2010 / SiteRip's 1991-2010 ·· Krissy Lynn and Jessica Lynn (You and Me and The Other Slut We Know) / Две блондинистые шлюшки развлекаются [2009 г., All sex, Big Tits, SiteRip] / Новый сайт от BRAZZERS!!! Sakura 348504753332 MB 0 0 1383897132

11:52

8-Ноя-13

Сайтрипы 2013 / SiteRip's 2013 ·· Krissy Lynn (Krissy's Delicious Cookies / 26.11.13) [2013 г., Big Tits Worship, Uniform, Big Tits, Blonde, 720p] Sakura 19963905161.86 GB 0 0 1385477565

18:52

26-Ноя-13

Сайтрипы 2013 / SiteRip's 2013 ·· Krissy Lynn (Krissy's Delicious Cookies / 25.11.13) [2013 г., Uniform, Big Tits, Blonde, 1080p] Sakura 29768993632.77 GB 0 0 1385477551

18:52

26-Ноя-13

Сайтрипы 2013 / SiteRip's 2013 ·· Krissy Lynn & Mia Lelani & Romi Rain (Getting Some Satisfaction / 10.12.13) [2013 г., Foursome, Work Fantasies, Blowjob, Uniform, Big Tits Worship, Asian, Brunette, Blonde, Big Tits, Construction, 720p] Sakura 19739619951.84 GB 0 0 1386665209

12:46

10-Дек-13

Сайтрипы 2013 / SiteRip's 2013 ·· Krissy Lynn & Mia Lelani & Romi Rain (Getting Some Satisfaction / 10.12.13) [2013 г., All Sex, 1080p] Sakura 29409569322.74 GB 0 0 1386665207

12:46

10-Дек-13

Сайтрипы 2013 / SiteRip's 2013 ·· Krissy Lynn & Mia Lelani & Romi Rain (Getting Some Satisfaction / 10.12.13) [2013 г., Foursome, Work Fantasies, Blowjob (POV), Uniform, Big Tits Worship, Asian, Brunette, Blonde, Big Tits, Construction] Sakura 278190190265 MB 0 0 1386664968

12:42

10-Дек-13

Сайтрипы 2013 / SiteRip's 2013 ·· Krissy Lynn & Mia Lelani & Romi Rain (Getting Some Satisfaction / 10.12.13) [2013 г., Foursome, Work Fantasies, Blowjob (POV), Uniform, Big Tits Worship, Asian, Brunette, Blonde, Big Tits, Construction] Sakura 520575237496 MB 0 0 1386664962

12:42

10-Дек-13

Сайтрипы 1991-2010 / SiteRip's 1991-2010 ·· Krissy Lynn (Training Day Bitch! / 13.10.10) [2010г., Big Tits, Blonde, Deep Throat, Facial, Uniform] Sakura 444612521424 MB 0 0 1383920786

18:26

8-Ноя-13

Сайтрипы 2012 / SiteRip's 2012 ·· Krissy Lynn (This Is A Bust! / 07.03.2012) [Big tits, Blowjob, Creampie, Uniform] [1080p] Sakura 32437383653.02 GB 0 0 1380300597

20:49

27-Сен-13

Еще никто не оставлял запись к записи скачать торрент Krissy Lynn . Будь первым!

!Обратная связь
//main.js show_panel