Статистика раздачи
Размер:  922 MB   |    Зарегистрирован:  1 год 2 месяца   |    .torrent скачан:  52 раза   |   

Пиры будут получены при скачивании

 

Скачать порно Lingerie Dreams 2 / Сексапильное белье 2 : Мечты и желания , Cathy Taylor, Stephanie Sumers, Kari Mitchell, Suzi Q ) через торрент бесплатно :: UnionPron.org

 
 
Автор Сообщение

Sakura

avatar Sakura


Lingerie Dreams 2 | Сексапильное белье 2 : Мечты и желания
Год производства: 1994 г.
Страна: США | USA
Жанр: Erotic
Продолжительность: 01:00:00
Язык: Английский | English

Режиссер: Jack Richman
Студия: Player Home Video

В ролях: Julie Strain, Shauna O''brien (as Stevie Jean), Cathy Taylor, Stephanie Sumers, Kari Mitchell, Suzi Q

Описание: Former Penthouse Pet of the Year and B-Movie queen Julie Strain is joined by some of the most beautiful lingerie models in the world for this titillating program. Proving that the wrapping makes even the most alluring present more attractive, these models turn up the heat as they strip off some...
Соблазнительные модели беспрерывно меняют свои роскошные одежды, часто оставаясь вовсе без них... Женщины, да и мужчины, я уверен, получат удовольствие, рассматривая откровенные наряды, чулки и тончайшее французское белье и кружева.

Качество видео: VHSRip
Формат видео: MP4
Видео: AVC, 720x480 (3:2), 29.970 fps, 1 948 Kbps (0.188 bit/pixel)
Аудио: AAC LC, 48.0 KHz, 2 ch, 180 Kbps, CBR (English)
General
Format : MPEG-4
Format profile : Base Media / Version 2
Codec ID : mp42
File size : 922 MiB
Duration : 1h 0mn
Overall bit rate : 2 136 Kbps
Encoded date : UTC 2015-12-25 08:04:40
Tagged date : UTC 2015-12-25 08:04:40
stik :
iTunMOVI : <?xml version="1.0" encoding="UTF-8"?><!DOCTYPE plist PUBLIC "-//Apple Computer//DTD PLIST 1.0//EN" "http://www.apple.com/DTDs/PropertyList-1.0.dtd"><plist version="1.0"><dict><key>studio</key><string>studio</string><key>cast</key><array><dict><key>name</key><string></string></dict></array><key>directors</key><array><dict><key>name</key><string></string></dict></array><key>producers</key><array><dict><key>name</key><string></string></dict></array><key>codirectors</key><array><dict><key>name</key><string>codirector</string></dict></array><key>screenwriters</key><array><dict><key>name</key><string></string></dict></array></dict></plist>
Video #1
ID : 1
Format : AVC
Format/Info : Advanced Video Codec
Format profile : Main@L4.1
Format settings, CABAC : Yes
Format settings, ReFrames : 2 frames
Muxing mode : Container profile=Baseline@3.0
Codec ID : avc1
Codec ID/Info : Advanced Video Coding
Duration : 1h 0mn
Bit rate mode : Variable
Bit rate : 1 948 Kbps
Width : 720 pixels
Height : 480 pixels
Display aspect ratio : 1.500
Frame rate mode : Constant
Frame rate : 29.970 fps
Standard : NTSC
Resolution : 24 bits
Colorimetry : 4:2:0
Scan type : Progressive
Bits/(Pixel*Frame) : 0.188
Stream size : 841 MiB (91%)
Audio #2
ID : 2
Format : AAC
Format/Info : Advanced Audio Codec
Format version : Version 4
Format profile : LC
Format settings, SBR : No
Codec ID : 40
Duration : 1h 0mn
Bit rate mode : Constant
Bit rate : 180 Kbps
Channel(s) : 2 channels
Channel positions : L R
Sampling rate : 48.0 KHz
Resolution : 16 bits
Stream size : 77.7 MiB (8%)
[url=...1073994]Lingerie Dreams 2 (930 MB) - обрезанная версия[/url]За наводку благодарю Blade20002
Трекер:  [ 26-Июл-2016 21:00 ]

Размер .torrent файла 18 KB


Размер: 922 MB
Хэш (hash) релиза: d1b98912f5179e07211a38046fe4d284c1ec5ee7
Подписка на обновления:

Еще никто не оставлял запись к записи скачать торрент Lingerie Dreams 2 Сексапильное белье 2 : Мечты и желания . Будь первым!

!Обратная связь
//main.js show_panel