Статистика раздачи
Размер:  1.62 GB   |    Зарегистрирован:  6 месяцев   |    .torrent скачан:  65 раз   |   

Пиры будут получены при скачивании

 

Скачать порно Les petites écolières / Les petites ecolieres / Internat D'Amour / The Little Schoolgirls / Маленькие Школьницы +sub через торрент бесплатно :: UnionPron.org

 
 
Автор Сообщение

Sakura

avatar Sakura


Les petites écolières / Маленькие школьницы

Год производства: 1980
Страна: Франция
Жанр: Comedy, Classiс
Продолжительность: 01:25:01
Язык: Немецкий
Субтитры: [b]русские[/b], мой перевод с испанского

Режиссер: Claude Mulot as Frederic Lansac
Студия: Alpha France

В ролях:
Brigitte Lahaie ... Madame, la directrice
Cathy Stewart ... Suzy
Élodie Delage ... Nanette
Céline Galone ... Claudia
Jane Baker ... Nathalie
Dominique Aveline ... Charles, le surveillant (as Dominique Avelyne)
Alban Ceray ... Professeur Lambert
Hubert Géral ... Le commissaire Lambris
Tony Morena ... Landrieux, la fausse blonde (as Toni Morena)
Dominique Saint Claire ... Eric
Jack Gatteau ... Le plombier


Описание:
Один из последних фильмов Бриджит Лае (Brigitte Lahaie), в котором она играет хозяйку борделя, куда неожиданно нагрянула полиция. Мадам решает замаскировать заведение под девичью школу, в которой ученицы будут постигать искусство ублажать своих мужчин, в том числе помимо их воли. В свое время фильм вызвал ряд претензий со стороны католической церкви, как дающий ряд намеков на существование подобных школ для нужд духовенства. Классический фильм, производство 1979 года, издание 1980. Время, когда при достаточной коммерческой насыщености рынка взрослого видео, из него не успела улетучиться специфическая художественная составляющая, присущая 70ым годам.


Дополнительная информация:
Личная оценка фильма 9 из 10. Один из наиболее популярных фильмов раздела классики теперь с переводом. Перевод к этому фильму дался не легко. Дело в том, что я переводил единственные имеющиеся в сети испанские субтитры, а они были сделаны по английскому дубляжу с DVD. Здесь же немецкий дубляж с [url=...1944018]Blu-Ray[/url], он оказался куда более полным и в некоторых местах сильно по смыслу отличается от английского. Поэтому, после перевода сабов он-лайн переводчиками, текст пришлось долго адаптировать под немецкий релиз и кое-что додумать по сюжету.
В переводе имеется ненормативная лексика.



Качество видео: BDRip-AVC
Формат видео: mkv
Видео кодек: H.264
Аудио кодек: ac3
Видео: 900 x 536 / MPEG-4 AVC Video / 2500 kbps / 23,976 fps
Аудио: Deutsch / AC3 / 2.0 / 224 kbps
Субтитры: SRT - Rus
Главы: подписанные русские 18 шт.
00:00:00.000 : ru:МАЛЕНЬКИЕ ШКОЛЬНИЦЫ
00:04:20.000 : ru:Комиссар Ламбри
00:07:06.000 : ru:Открытие школы
00:09:53.000 : ru:Первый урок
00:16:09.000 : ru:Обед
00:20:02.000 : ru:Продолжаем заниматься
00:23:48.000 : ru:Закончился первый день занятий
00:30:48.000 : ru:Урок истории
00:31:14.000 : ru:Суперсантехник
00:40:31.000 : ru:Идём на выходные
00:43:10.000 : ru:Экзамен
00:50:32.000 : ru:Эрик
00:56:56.000 : ru:Выпускной
00:57:53.000 : ru:Красная Шапочка
01:07:08.000 : ru:Капитан Крюк
01:11:40.000 : ru:Спящая красавица
01:18:32.000 : ru:Екатерина II и Потёмкин
01:21:54.000 : ru:Комиссар приходит снова
Общее
Уникальный идентификатор : 177070369634144772497877722073277803445 (0x853683413D12E760AB04B101F8E22BB5)
Полное имя : F:\Les.petites.ecolieres.1980.BDRip-AVC.Ger.Sub.Rus.mkv
Формат : Matroska
Версия формата : Version 4 / Version 2
Размер файла : 1,62 Гбайт
Продолжительность : 1 ч. 25 м.
Общий поток : 2726 Кбит/сек
Название фильма : Les petites écolières
Дата кодирования : UTC 2016-07-10 15:51:09
Программа кодирования : mkvmerge v9.2.0 (''Photograph'') 32bit
Библиотека кодирования : libebml v1.3.3 + libmatroska v1.4.4
DURATION : 01:24:53.300000000
NUMBER_OF_FRAMES : 541
NUMBER_OF_BYTES : 31327
_STATISTICS_WRITING_APP : mkvmerge v9.2.0 (''Photograph'') 32bit
_STATISTICS_WRITING_DATE_UTC : 2016-07-10 15:51:09
_STATISTICS_TAGS : BPS DURATION NUMBER_OF_FRAMES NUMBER_OF_BYTES

Видео
Идентификатор : 1
Формат : AVC
Формат/Информация : Advanced Video Codec
Профиль формата : High@L4
Параметр CABAC формата : Да
Параметр ReFrames формата : 16 кадров
Идентификатор кодека : V_MPEG4/ISO/AVC
Продолжительность : 1 ч. 25 м.
Битрейт : 2500 Кбит/сек
Ширина : 900 пикселей
Высота : 536 пикселей
Соотношение сторон : 5:3
Режим частоты кадров : Постоянный
Частота кадров : 23,976 кадра/сек
Цветовое пространство : YUV
Субдискретизация насыщенности : 4:2:0
Битовая глубина : 8 бит
Тип развёртки : Прогрессивная
Бит/(Пиксели*Кадры) : 0.216
Размер потока : 1,45 Гбайт (90%)
Заголовок : Les petites écolières
Библиотека кодирования : x264 core 148 r2638 7599210
Настройки программы : cabac=1 / ref=16 / deblock=1:-1:-1 / analyse=0x3:0x133 / me=umh / subme=10 / psy=1 / psy_rd=1.00:0.15 / mixed_ref=1 / me_range=24 / chroma_me=1 / trellis=2 / 8x8dct=1 / cqm=0 / deadzone=21,11 / fast_pskip=1 / chroma_qp_offset=-3 / threads=3 / lookahead_threads=1 / sliced_threads=0 / nr=0 / decimate=1 / interlaced=0 / bluray_compat=0 / constrained_intra=0 / bframes=8 / b_pyramid=2 / b_adapt=2 / b_bias=0 / direct=3 / weightb=1 / open_gop=0 / weightp=2 / keyint=240 / keyint_min=23 / scenecut=40 / intra_refresh=0 / rc_lookahead=60 / rc=2pass / mbtree=1 / bitrate=2500 / ratetol=1.0 / qcomp=0.60 / qpmin=0 / qpmax=69 / qpstep=4 / cplxblur=20.0 / qblur=0.5 / ip_ratio=1.40 / aq=1:1.00
Default : Да
Forced : Да

Аудио
Идентификатор : 2
Формат : AC-3
Формат/Информация : Audio Coding 3
Расширение режима : CM (complete main)
Параметр Endianness формата : Big
Идентификатор кодека : A_AC3
Продолжительность : 1 ч. 25 м.
Вид битрейта : Постоянный
Битрейт : 224 Кбит/сек
Каналы : 2 канала
Расположение каналов : Front: L R
Частота : 48,0 КГц
Метод сжатия : С потерями
Размер потока : 136 Мбайт (8%)
Заголовок : AC3 2.0 224 kbps
Язык : German
Default : Да
Forced : Да

Текст
Идентификатор : 3
Формат : UTF-8
Идентификатор кодека : S_TEXT/UTF8
Идентификатор кодека/Информация : UTF-8 Plain Text
Язык : Russian
Default : Да
Forced : Да

Меню
00:00:00.000 : ru:МАЛЕНЬКИЕ ШКОЛЬНИЦЫ
00:04:20.000 : ru:Комиссар Ламбри
00:07:06.000 : ru:Открытие школы
00:09:53.000 : ru:Первый урок
00:16:09.000 : ru:Обед
00:20:02.000 : ru:Продолжаем заниматься
00:23:48.000 : ru:Закончился первый день занятий
00:30:48.000 : ru:Урок истории
00:31:14.000 : ru:Суперсантехник
00:40:31.000 : ru:Идём на выходные
00:43:10.000 : ru:Экзамен
00:50:32.000 : ru:Эрик
00:56:56.000 : ru:Выпускной
00:57:53.000 : ru:Красная Шапочка
01:07:08.000 : ru:Капитан Крюк
01:11:40.000 : ru:Спящая красавица
01:18:32.000 : ru:Екатерина II и Потёмкин
01:21:54.000 : ru:Комиссар приходит снова
...........................................................................................
...

---[Information] [09.07.2016 22:56:14] x264 [info]: frame I:795 Avg QP:17.99 size: 92636
---[Information] [09.07.2016 22:56:15] x264 [info]: frame P:28022 Avg QP:20.89 size: 28930
---[Information] [09.07.2016 22:56:15] x264 [info]: frame B:93504 Avg QP:23.73 size: 7593
...
............................................................................................




Трекер:  [ 11-Июл-2016 19:00 ]

Размер .torrent файла 33 KB


Размер: 1.62 GB
Хэш (hash) релиза: dcbf0bd4b6685314ec44d6742eeb4c80428b2455
Подписка на обновления:

Еще никто не оставлял запись к записи скачать торрент Les petites écolières Les petites ecolieres . Будь первым!

!Обратная связь
//main.js show_panel