Статистика раздачи
Размер:  1.31 GB   |    Зарегистрирован:  6 месяцев   |    .torrent скачан:  34 раза   |   

Пиры будут получены при скачивании

 

Скачать порно Anna, les nuits chaudes / After Party Bitches / Страстные ночи Анны / Дискотечные Сучки через торрент бесплатно :: UnionPron.org

 
 
Автор Сообщение

Sakura

avatar Sakura


Anna, les nuits chaudes / After Party Bitches / Страстные ночи Анны / Дискотечные Сучки

Год производства: 2012 г.
Страна: France
Жанр: Feature
Продолжительность: 01:44:53
Язык: русский
Перевод: профессиональный закадровый.
Субтитры: русские
Оригинальная аудиодорожка: французский
Навигация по главам: есть

Режиссер: Bobby Peru
Студия: Marc Dorcel

В ролях: Anna Polina, Mike Angelo, Carla Cox, Neeo, Tiffany Doll, Diether Von Stein, Max Cortes, Carol Vega, David Galant, Melody Star

Описание: Neglected by her husband, Anna decides to go and visit her best friend Lola, a famous DJ on the Barcelona nightlife circuit. Sexually liberated, Lola is going to do everything to take everything off Anna’s mind…
From the very first night of the festivities, Lola leads Anna to the toilets at a nightclub where two men with raging hard-ons are getting sucked off by a pretty brunette. The two friends don’t skip a beat and join in the threesome and Anna rediscovers the pleasure of the flesh through an incredible double penetration. Anna decides to go the whole nine yards, so the very next day, she gives herself entirely to the limo driver who takes her brutally before cumming on Lola, who hasn’t missed a second of the show.
But just how far is Anna prepared to go in her quest for pleasure?

Качество видео: DVDRip-Avc
Формат видео: MP4
Видео: x264, 720x290 (2.50:1), 29.970 fps, 1385 Kbps, 0.221 bit/pixel
Аудио 1: 48 kHz, AAC-LC, 2 Ch, ~128 Rus
Аудио 2: 48 kHz, AAC-LC, 2 Ch, ~128 Fre
Аудио 3: 48 kHz, AAC-LC, 2 Ch, ~128 Eng
Формат субтитров: softsub (tx3g)
General
Complete name : D:\After Party Bitches.mp4
Format : MPEG-4
Format profile : Base Media
Codec ID : isom
File size : 1.31 GiB
Duration : 1h 44mn
Overall bit rate mode : Variable
Overall bit rate : 1 788 Kbps
Writing application : XviD4PSP 7.0.277 DAILY
encoding_info : MATROSKA / WEBM > MP4 / H264 > COPY / AAC-LC > COPY / AAC-LC > COPY / AAC-LC > COPY

Video
ID : 1
Format : AVC
Format/Info : Advanced Video Codec
Format profile : High@L3
Format settings, CABAC : Yes
Format settings, ReFrames : 4 frames
Codec ID : avc1
Codec ID/Info : Advanced Video Coding
Duration : 1h 44mn
Bit rate : 1 385 Kbps
Width : 720 pixels
Height : 290 pixels
Display aspect ratio : 2.500
Frame rate mode : Variable
Frame rate : 29.970 fps
Minimum frame rate : 29.412 fps
Maximum frame rate : 30.303 fps
Color space : YUV
Chroma subsampling : 4:2:0
Bit depth : 8 bits
Scan type : Progressive
Bits/(Pixel*Frame) : 0.221
Stream size : 1.01 GiB (77%)
Writing library : x264 core 148 r2705M 3f5ed56
Encoding settings : cabac=1 / ref=3 / deblock=1:-1:-1 / analyse=0x3:0x133 / me=umh / subme=7 / psy=1 / psy_rd=1.00:0.20 / mixed_ref=1 / me_range=16 / chroma_me=1 / trellis=1 / 8x8dct=1 / cqm=0 / deadzone=21,11 / fast_pskip=1 / chroma_qp_offset=-3 / threads=5 / lookahead_threads=1 / sliced_threads=0 / nr=0 / decimate=1 / interlaced=0 / bluray_compat=0 / constrained_intra=0 / bframes=3 / b_pyramid=2 / b_adapt=2 / b_bias=0 / direct=3 / weightb=1 / open_gop=0 / weightp=2 / keyint=250 / keyint_min=25 / scenecut=40 / intra_refresh=0 / rc=crf / mbtree=0 / crf=19.0 / qcomp=0.60 / qpmin=0 / qpmax=69 / qpstep=4 / ip_ratio=1.40 / pb_ratio=1.30 / aq=1:1.00
Color range : Limited
Color primaries : BT.601 NTSC
Transfer characteristics : BT.601
Matrix coefficients : BT.601

Audio #1
ID : 2
Format : AAC
Format/Info : Advanced Audio Codec
Format profile : LC
Codec ID : 40
Duration : 1h 44mn
Bit rate mode : Constant
Bit rate : 128 Kbps
Channel(s) : 2 channels
Channel positions : Front: L R
Sampling rate : 48.0 KHz
Compression mode : Lossy
Stream size : 95.9 MiB (7%)
Language : Russian

Audio #2
ID : 3
Format : AAC
Format/Info : Advanced Audio Codec
Format profile : LC
Codec ID : 40
Duration : 1h 44mn
Bit rate mode : Constant
Bit rate : 128 Kbps
Channel(s) : 2 channels
Channel positions : Front: L R
Sampling rate : 48.0 KHz
Compression mode : Lossy
Stream size : 96.0 MiB (7%)
Language : French

Audio #3
ID : 4
Format : AAC
Format/Info : Advanced Audio Codec
Format profile : LC
Codec ID : 40
Duration : 1h 44mn
Bit rate mode : Constant
Bit rate : 128 Kbps
Channel(s) : 2 channels
Channel positions : Front: L R
Sampling rate : 48.0 KHz
Compression mode : Lossy
Stream size : 96.0 MiB (7%)
Language : English

Text
ID : 5
Format : Timed Text
Muxing mode : sbtl
Codec ID : tx3g
Duration : 1h 44mn
Bit rate mode : Variable
Bit rate : 11 bps
Stream size : 8.12 KiB (0%)
Language : Russian

Menu #1
ID : 6
Codec ID : text
Duration : 1h 44mn
Language : English
Bit rate mode : CBR

Menu #2
00:00:00.000 : Chapter 1
00:07:07.000 : Chapter 2
00:26:11.000 : Chapter 3
00:42:30.500 : Chapter 4
00:57:38.000 : Chapter 5
01:20:17.000 : Chapter 6
01:44:27.500 : Chapter 7
Scene 1. Carla Cox, Anna Polina, David Galant
Scene 2. Carla Cox, Anna Polina, Melody Star, Max Cortes, Mike Angelo
Scene 3. Carla Cox, Carol Vega, Dieter Von Stein
Scene 4. Tiffany Doll, Dieter Von Stein, Mike Angelo
Scene 5. Carla Cox, Anna Polina, Neeo
Scene 6. Carla Cox, Anna Polina, Dieter Von Stein
http://screenshotcomparison.com/comparison/177274
Трекер:  [ 03-Июл-2016 20:30 ]

Размер .torrent файла 13 KB


Размер: 1.31 GB
Хэш (hash) релиза: 69977426b42b0302f011bd227070495632ce78
Подписка на обновления:

Еще никто не оставлял запись к записи скачать торрент Anna, les nuits chaudes After Party Bitches . Будь первым!

!Обратная связь
//main.js show_panel