Статистика раздачи
Размер:  2 GB   |    Зарегистрирован:  1 год 1 месяц   |    .torrent скачан:  33 раза   |   

Пиры будут получены при скачивании

 

Скачать порно модель GessiStar днюха на сайте через торрент бесплатно :: UnionPron.org

 
 
Автор Сообщение

Sakura

avatar Sakura


модель bongacams GessiStar

Год производства: 2016-06-28
Сайт: bongacams.com

Жанр: Erotic
Продолжительность: 04:04:30

Описание: модель bongacams GessiStar отмечает свой юбилей на бонге, хорошо погуляв и вообще отлично проведя время в кругу друзей и поклонников, не дав никому заскучать в чате, часть собранной суммы что ей накидали на подарки, лиса пожертвовала на благотворительность в фонд, на лечение больных раком, ну что тут можно добавить, молодец лиса, побольше бы таких моделей несущих не только пазитивное настроение людям но и совершая при этом добрые дела и поступки.

Качество видео: CamRip
Формат видео: WMV
Format : VC-1
Format profile : MP@HL
Codec ID : WMV3
Codec ID/Info : Windows Media Video 9
Codec ID/Hint : WMV3
Description of the codec : Windows Media Video 9
Duration : 4h 4mn
Bit rate mode : Variable
Bit rate : 1 825 Kbps
Width : 1 332 pixels
Height : 720 pixels
Display aspect ratio : 1.85:1
Frame rate : 30.000 fps
Bit depth : 8 bits
Compression mode : Lossy
Bits/(Pixel*Frame) : 0.063
Stream size : 3.12 GiB (94%)
Format : WMA
Format version : Version 2
Codec ID : 161
Codec ID/Info : Windows Media Audio
Description of the codec : Windows Media Audio 9.2 - VBR Quality 90, 44 kHz, stereo 1-pass VBR
Duration : 4h 4mn
Bit rate mode : Variable
Bit rate : 103 Kbps
Channel(s) : 2 channels
Sampling rate : 44.1 KHz
Bit depth : 16 bits
Stream size : 179 MiB (5%)
Трекер:  [ 03-Июл-2016 03:00 ]

Размер .torrent файла 17 KB


Размер: 2 GB
Хэш (hash) релиза: d92ebae648d0661cebd254d2cd0228526ee4b71c
Подписка на обновления:

Еще никто не оставлял запись к записи скачать торрент модель GessiStar днюха на сайте . Будь первым!

!Обратная связь
//main.js show_panel