Статистика раздачи
Размер:  2 GB   |    Зарегистрирован:  1 год 2 месяца   |    .torrent скачан:  231 раз   |   

Пиры будут получены при скачивании

 

Скачать порно The Collection Gamerips через торрент бесплатно :: UnionPron.org

 
 
Автор Сообщение

Sakura

avatar Sakura



The Collection Samu''s LABO Gamerips
Год производства: 2014-2015 г.
Жанр Hand Job , Married Woman, Breast Sex, Orgy Sex,
Цензура : Есть во всех файлах =)
Язык : Японский
Описание : Сборник Gamerips разработчика Samu''s LABO
Разрешение видео : 720p

Разработчик/Издательство : Samu''s LABO
Описание:
Сборник Gamerips от разработчика Samu''s LABO

Содержание раздачи:
*The Average Day of S Mama and M Boku
*Gal Mago ~Suimin & Saimin~
*Mommy! That''s Too Far
*A Mother''s Devotion
*AMA-MAMA
*One x Boku

The Average Day of S Mama and M Boku

Год производства: 2015 г.
Жанр: Mother Breasts, Foot Job, Internal Cumshot, Oral Assault Incest
Продолжительность: 11:30
Цензура: Есть во всех файлах

Студия: Samu''s LABO
Описание: Consensual mother-son sex in high quality 3DCG.

Качество видео: GameRip
Разрешение видео: 720p
Формат видео: WMV
Видео: Windows Media Video 9 1280x720 30fps 3000kbps
Аудио 1: WMA 2 44100Hz stereo 128kbps
Video
ID : 1
Format : VC-1
Format profile : MP@HL
Codec ID : WMV3
Codec ID/Info : Windows Media Video 9
Codec ID/Hint : WMV3
Description of the codec : Windows Media Video 9 - Professional
Duration : 11mn 41s
Bit rate mode : Constant
Bit rate : 3 000 Kbps
Width : 1 280 pixels
Height : 720 pixels
Display aspect ratio : 16:9
Frame rate : 30.000 fps
Color space : YUV
Chroma subsampling : 4:2:0
Bit depth : 8 bits
Scan type : Progressive
Compression mode : Lossy
Bits/(Pixel*Frame) : 0.109
Stream size : 251 MiB (97%)
Language : Latvian

Audio
ID : 2
Format : WMA
Format version : Version 2
Codec ID : 161
Codec ID/Info : Windows Media Audio
Description of the codec : Windows Media Audio 9.2 - 128 kbps, 44 kHz, stereo 1-pass CBR
Duration : 11mn 40s
Bit rate mode : Constant
Bit rate : 128 Kbps
Channel(s) : 2 channels
Sampling rate : 44.1 KHz
Bit depth : 16 bits
Stream size : 10.7 MiB (4%)

Gal Mago ~Suimin & Saimin~ /

Год производства: 2015 г.
Жанр: Buttocks Gal, Hypnosis Blonde
Продолжительность: 30:13
Цензура: Есть во всех файлах

Студия: Samu''s LABO
Описание:
Grandpa''s had enough of his brash, sass-talking granddaughter. Maybe some hypnosis will tame her?

Качество видео: GameRip
Разрешение видео: 720p
Формат видео: WMV
Видео: Windows Media Video 9 1280x720 30fps 3000kbps
Аудио 1: WMA 2 44100Hz stereo 96kbps
Video
ID : 1
Format : VC-1
Format profile : MP@HL
Codec ID : WMV3
Codec ID/Info : Windows Media Video 9
Codec ID/Hint : WMV3
Description of the codec : Windows Media Video 9 - Professional
Duration : 30mn 13s
Bit rate mode : Constant
Bit rate : 3 000 Kbps
Width : 1 280 pixels
Height : 720 pixels
Display aspect ratio : 16:9
Frame rate : 30.000 fps
Color space : YUV
Chroma subsampling : 4:2:0
Bit depth : 8 bits
Scan type : Progressive
Compression mode : Lossy
Bits/(Pixel*Frame) : 0.109
Stream size : 649 MiB (99%)
Language : Latvian

Audio
ID : 2
Format : WMA
Format version : Version 2
Codec ID : 161
Codec ID/Info : Windows Media Audio
Description of the codec : Windows Media Audio 9.2 - 96 kbps, 44 kHz, stereo 1-pass CBR
Duration : 30mn 13s
Bit rate mode : Constant
Bit rate : 96.0 Kbps
Channel(s) : 2 channels
Sampling rate : 44.1 KHz
Bit depth : 16 bits
Stream size : 20.8 MiB (3%)

Mommy! That''s Too Far

Год производства: 2015 г.
Жанр: Married Woman,Foot Job, Internal Cumshot
Продолжительность: 30:10
Цензура: Есть во всех файлах

Студия:Samu''s LABO

Описание: The milf of the plastic model shop is happily married, but her boy''s at that special age.

Качество видео: GameRip
Разрешение видео: 720p
Формат видео: WMV
Видео: WVC1 1280x720 30fps 3000kbps
Аудио 1: WMA 2 44100Hz stereo 96kbps
Video
ID : 1
Format : VC-1
Format profile : Advanced@L2
Codec ID : WVC1
Codec ID/Hint : Microsoft
Description of the codec : Windows Media Video 9 Advanced Profile
Duration : 30mn 10s
Bit rate mode : Constant
Bit rate : 3 000 Kbps
Width : 1 280 pixels
Height : 720 pixels
Display aspect ratio : 16:9
Frame rate : 30.000 fps
Color space : YUV
Chroma subsampling : 4:2:0
Bit depth : 8 bits
Scan type : Progressive
Compression mode : Lossy
Bits/(Pixel*Frame) : 0.109
Stream size : 647 MiB (97%)
Language : Latvian

Audio
ID : 2
Format : WMA
Format version : Version 2
Codec ID : 161
Codec ID/Info : Windows Media Audio
Description of the codec : Windows Media Audio 9.2 - 96 kbps, 44 kHz, stereo 1-pass CBR
Duration : 30mn 10s
Bit rate mode : Constant
Bit rate : 96.0 Kbps
Channel(s) : 2 channels
Sampling rate : 44.1 KHz
Bit depth : 16 bits
Stream size : 20.7 MiB (3%

A Mother''s Devotion

Год производства: 2014 г.
Жанр: Mother Bukkake, Breast Sex, Orgy Sex
Продолжительность: 35:03
Цензура: Есть во всех файлах

Студия:Samu''s LABO

Описание:
Upon learning that her son was being bullied,
Kazue offered herself in her son''s place for one day.
She thought she could handle anything for the sake of her son, but...

Качество видео: GameRip
Разрешение видео: 720p
Формат видео: WMV
Видео: Windows Media Video 9 1280x720 30fps 3000kbps
Аудио 1: WMA 2 44100Hz stereo 96kbps
Video
ID : 1
Format : VC-1
Format profile : MP@HL
Codec ID : WMV3
Codec ID/Info : Windows Media Video 9
Codec ID/Hint : WMV3
Description of the codec : Windows Media Video 9 - Professional
Duration : 35mn 3s
Bit rate mode : Constant
Bit rate : 3 000 Kbps
Width : 1 280 pixels
Height : 720 pixels
Display aspect ratio : 16:9
Frame rate : 30.000 fps
Color space : YUV
Chroma subsampling : 4:2:0
Bit depth : 8 bits
Scan type : Progressive
Compression mode : Lossy
Bits/(Pixel*Frame) : 0.109
Stream size : 752 MiB
Language : Latvian

Audio
ID : 2
Format : WMA
Format version : Version 2
Codec ID : 161
Codec ID/Info : Windows Media Audio
Description of the codec : Windows Media Audio 9.2 - 96 kbps, 44 kHz, stereo 1-pass CBR
Duration : 35mn 3s
Bit rate mode : Constant
Bit rate : 96.0 Kbps
Channel(s) : 2 channels
Sampling rate : 44.1 KHz
Bit depth : 16 bits
Stream size : 24.1 MiB (3%

AMA-MAMA

Год производства: 2014 г.
Жанр: Breasts Mother, Romance,Internal Cumshot , Breast Sex
Продолжительность: 11:40
Цензура: Есть во всех файлах

Студия: Samu''s LABO

Описание:
Yuu-kun has a beautiful and gentle mom who he loves more than anything.
Alarmed by the news that she''s doing "omiai", a formal matchmaking for marriage,
he takes action so she''ll never yearn for another man

Качество видео: GameRip
Разрешение видео: 720p
Формат видео: WMV
Видео: Windows Media Video 9 1280x720 30fps 3000kbps
Аудио 1: WMA 2 44100Hz stereo 96kbps
Video
ID : 1
Format : VC-1
Format profile : MP@HL
Codec ID : WMV3
Codec ID/Info : Windows Media Video 9
Codec ID/Hint : WMV3
Description of the codec : Windows Media Video 9 - Professional
Duration : 37mn 20s
Bit rate mode : Constant
Bit rate : 3 000 Kbps
Width : 1 280 pixels
Height : 720 pixels
Display aspect ratio : 16:9
Frame rate : 30.000 fps
Color space : YUV
Chroma subsampling : 4:2:0
Bit depth : 8 bits
Scan type : Progressive
Compression mode : Lossy
Bits/(Pixel*Frame) : 0.109
Stream size : 801 MiB (98%)
Language : Latvian

Audio
ID : 2
Format : WMA
Format version : Version 2
Codec ID : 161
Codec ID/Info : Windows Media Audio
Description of the codec : Windows Media Audio 9.2 - 96 kbps, 44 kHz, stereo 1-pass CBR
Duration : 37mn 20s
Bit rate mode : Constant
Bit rate : 96.0 Kbps
Channel(s) : 2 channels
Sampling rate : 44.1 KHz
Bit depth : 16 bits
Stream size : 25.6 MiB (3%

One x Boku
Год производства: 2014 г.
Жанр: Older Sister , Breast Sex
Продолжительность: 31:22
Цензура: Есть во всех файлах

Язык: Японский
Озвучка: Оригинальная
Студия: Samu''s LABO

Описание:
Yuu-kun lives next to a knockout babe named Misa.
One day while his parents are out she housesits.
With just the two of them in his bedroom, Yuu-kun''s heart goes thump thump.
She realizes that he''s excited and begins to tease him...

Качество видео: GameRip
Разрешение видео: 720p
Формат видео: WMV
Видео кодек: Windows Media
Аудио кодек: WMA
Видео: Windows Media Video 9 1280x720 30.00fps 3000kbps
Аудио 1: WMA 2 44100Hz stereo 96kbp
Video
ID : 2
Format : VC-1
Format profile : MP@HL
Codec ID : WMV3
Codec ID/Info : Windows Media Video 9
Codec ID/Hint : WMV3
Description of the codec : Windows Media Video 9
Duration : 31mn 22s
Bit rate mode : Variable
Bit rate : 3000 Kbps
Width : 1 280 pixels
Height : 720 pixels
Display aspect ratio : 16:9
Frame rate : 30.000 fps
Bit depth : 8 bits
Scan type : Progressive
Compression mode : Lossy
Bits/(Pixel*Frame) : 0.145
Stream size : 900 MiB (65%)
Language : Japanese

Audio
ID : 1
Format : WMA
Format version : Version 2
Codec ID : 161
Codec ID/Info : Windows Media Audio
Description of the codec : Windows Media Audio 9.2 - VBR Quality 90, 44 kHz, stereo 1-pass VBR
Duration : 31mn 22s
Bit rate mode : Variable
Bit rate : 96 Kbps
Channel(s) : 2 channels
Sampling rate : 44.1 KHz
Bit depth : 16 bits
Stream size : 23.1 MiB (2%)
Трекер:  [ 29-Июн-2016 20:00 ]

Размер .torrent файла 19 KB


Размер: 2 GB
Хэш (hash) релиза: ffa1535f64d5d51700d7d8739fd2a7b7d011e8a1
Подписка на обновления:

Торренты, похожие на The Collection скачать торрент

Форум Название Автор Размер S L Добавлен
Классические порно фильмы / Classic ·· Big Tit Superstars of the 80's: Lotta Topp Collection / Big Tit Superstars of the 80's: Lotta Topp Collection (Alpha Blue Archives) [2006 г., Big Tits Mature Classic 2 Hour Comp 80's Gold, VHSRip] Sakura 910928320869 MB 0 0 1417275023

19:30

29-Ноя-14

Сайтрипы 2014 / SiteRip's 2014 ·· Miela (The MetArt Collection Songeire) [MichaelNinn.com] Miela - The MetArt Collection Songeire [2014, Solo] [2014 г., Solo, 1080p] Sakura 274013709261 MB 0 0 1403872320

16:32

27-Июн-14

Японские фильмы / Japan ·· A Kyousei fellatio after the mischief. To the mouth of 12 small Girls. Collection of heavy cameos 2 [MMT-007] (Minimum) [cen] [2013 г., All Sex, Small Growth Fetish, Blowjob, Compilation] Sakura 34201114483.19 GB 0 0 1408530624

14:30

20-Авг-14

Игры: основной подраздел / Games: main subsection ·· The summer of the Enkou girls collection - father is pakopako ... in a cool love hotel (α-MODEL) [cen] [2014, School,Stripteas,Straight,Oral,Footjob,Big tits,BDSM] [jap] Sakura 453526905433 MB 0 0 1400158902

17:01

15-Май-14

Женское доминирование и страпон / Femdom & Strapon ·· Jazzmon Platinum Series 57 - The Best Of The Best Strap On Collections / Платиновая серия Джазмон 57: Лучшее из лучшего страпон-коллекций (Jazzmon Radford, Jazzmon Radford Productions) [2006 г., FemDom, Strapon, Muscular women fetish, DVDRip] Sakura 163478476156 MB 0 0 1390058616

19:23

18-Янв-14

Транссексуалы / Transsexual ·· Nina Lawless Under the Table: Collect Your Reward (13 Sep) [2015 г., Tranny, Shemale, Solo, Masturbation, Cum, 720p, SiteRip] Sakura 352970568337 MB 0 0 1442235810

17:03

14-Сен-15

Японские фильмы (DVD и HD) / Japan (DVD & HD) ·· KIRARI 108 The Best Collection 3hrs 16 Girls: Yui Hatano, Miku Ohashi, Rie Tachikawa, and more [MKBD-S108] (MUGEN Entertainment) [uncen] [2015, Japan, Nice Face, Nice Tits, Creampie, Facial, Doggy, Straight, All Sex, Compilation, BDRip] [1080p] Sakura 82093083237.65 GB 0 0 1441834268

01:31

10-Сен-15

Японские фильмы / Japan ·· KIRARI 108 The Best Collection 3hrs 16Girls [MKD-S108] (MUGEN Entertainment) [uncen] [2015 г., All sex, DVDRip] Sakura 17518404271.63 GB 0 0 1441711871

15:31

8-Сен-15

БДСМ / BDSM ·· Jul 24, 2015 - Mr. Pete, Juliette March, Cadence Luxx and Adley Rose / The Girlfriend Collection / Коллекция девушек / 38179 [2015 г., BDSM, Bondage, Submission, Domination, Humiliation, All sex, Anal, 360p, SiteRip] Sakura 382020884364 MB 0 0 1437843839

21:03

25-Июл-15

БДСМ / BDSM ·· Jul 24, 2015 - Mr. Pete, Juliette March, Cadence Luxx and Adley Rose / The Girlfriend Collection / Коллекция девушек / 38179 [2015 г., BDSM, Bondage, Submission, Domination, Humiliation, All sex, Anal, 540p, SiteRip] Sakura 703287106671 MB 0 0 1437843834

21:03

25-Июл-15

БДСМ / BDSM ·· Jul 24, 2015 - Mr. Pete, Juliette March, Cadence Luxx and Adley Rose / The Girlfriend Collection / Коллекция девушек / 38179 [2015 г., BDSM, Bondage, Submission, Domination, Humiliation, All sex, Anal, 720p, HDRip] Sakura 23422025332.18 GB 0 0 1437775392

02:03

25-Июл-15

Игры: основной подраздел / Games: main subsection ·· The Pusooy's Games Collection in RUSSIAN / Сборник игр от Pusooy.net на РУССКОМ ЯЗЫКЕ (pusooy.net) [uncen] [2010-2014, Flash, ADV, Anal, Oral, Group, Lesbians, Blow Job, Masturbate] [rus] Sakura 237017477226 MB 0 0 1429119185

21:33

15-Апр-15

Подборки сетов / Picture Sets Packs ·· 2015-04-06 Bexie - The Urban Collection [Natural Tits, Softcore, Posing, Glamour] [1331х2000, 50 фото] Sakura 7315579970 MB 0 0 1428768167

20:02

11-Апр-15

Классические порно фильмы / Classic ·· The pleasure party (Lingerie Party) / Вечеринка наслаждений [ger] (John Shubert, Gourmet Video Collection) [1985 г., AllSex, VHS2DVDRip] Traci Lords, Barbie Dahl, Beverly Bliss, Erica Boyer Sakura 734523854700 MB 0 0 1428440418

01:00

8-Апр-15

Транссексуалы / Transsexual ·· LUXURY Asian Shemale Beauty the St.OPERA Collections / Самые Роскошные Азиатские Трансики Лучший Трах в Попу[OPBD-046;074;OPSD-016;OPUD-076;077;091;097;111;114;120;151] (OPERA) [cen] [2009-2013 г. Asian,Shemale,Anal,Hardcore,CrossDres,All Sex,DVDRip] Sakura 2273175133621.17 GB 0 0 1422309750

02:02

27-Янв-15

Порно мультфильмы / Cartoons ·· SFM Stuff Collection / Полная версия [2014 г., Big boobs, futa, Anal, Group sex, Sex, Anime, BlowJob, Lesbians, Animation, 3DCG, Mass Effect, Bioshock, Elsa the ice queen, World of warcraft, L4D, Lara Croft, Elizabeth, SiteRip] Sakura 71463018506.66 GB 0 0 1417021219

21:00

26-Ноя-14

Хентай в высоком качестве (DVD и HD) / Hentai DVD & HD ·· Madonna: Kanjuku Body Collection The Animation / Мадонна - Коллекция спелых тел (Kotobuki Ranko, Hills) (ep. 1) [cen] [2014 г., Big tits, Oral sex, Titsjob, Mature, DVD5] [jap] Sakura 12429845931.16 GB 0 0 1411227211

19:33

20-Сен-14

Хентай: основной подраздел / Hentai: main subsection ·· Madonna: Kanjuku Body Collection The Animation / Мадонна - Коллекция спелых тел (Kotobuki Ranko, hills) (ep. 1) [cen] [2014 г. Big tits, Oral sex, Paizuri, Group sex, DVDRip] [jap / eng / rus] Sakura 252789385241 MB 0 0 1409331785

21:03

29-Авг-14

Хентай: основной подраздел / Hentai: main subsection ·· Madonna: Kanjuku Body Collection The Animation / Мадонна - Коллекция спелых тел (Kotobuki Ranko, hills) (ep. 1) [cen] [2014 г. Big tits, Oral sex, Paizuri, Group sex, DVDRip] [jap / eng] Sakura 252749708241 MB 0 0 1408548762

19:32

20-Авг-14

Хентай: основной подраздел / Hentai: main subsection ·· Madonna: Kanjuku Body Collection The Animation / Мадонна - Коллекция спелых тел (Kotobuki Ranko, hills) (ep. 1) [cen] [2014 г., Big tits, Oral sex, Paizuri, Group sex, DVDRip] [jap] Sakura 252716421241 MB 0 0 1407006135

23:02

2-Авг-14

Еще никто не оставлял запись к записи скачать торрент The Collection . Будь первым!

!Обратная связь
//main.js show_panel