Статистика раздачи
Размер:  1.47 GB   |    Зарегистрирован:  1 год 3 месяца   |    .torrent скачан:  173 раза   |   

Пиры будут получены при скачивании

 

Скачать порно Dorei Nikki / Vice President's After School + special г., Clothed Buttocks Polygon Glasses Uniform School, GameRip] через торрент бесплатно :: UnionPron.org

 
 
Автор Сообщение

Sakura

avatar Sakura


[url=...1911603] [/url][url=...2155760] [/url]

Год производства: 2012-2016 г.
Жанр Polygon Anime, Glasses, Uniform, Underwear, School
Цензура : Есть во всех файлах =)
Язык : Японский
Описание : Сборник Gamerips разработчика sakamotoJ
Разрешение видео :720p-1080

Разработчик/Издательство : sakamotoJ
Описание:
Сборник Gamerips от разработчика sakamotoJ

Содержание раздачи:
* Dorei Nikki (Slave Diary)/どれい日記
* Vice President''s After School SP / 副会長の放課後SP
* Vice President''s After School / 副会長の放課後

Dorei Nikki (Slave Diary) /どれい日記

Год выпуска: 2016
Жанр: Polygon Anime, Glasse,s Uniform, Underwear, School
Продолжительность: 15:02
Цензура: Есть во всех файлах

Студия: sakamotoJ

Описание: Новие приклучение вице-президентов за решеткой

Качество видео: GameRip
Разрешение видео: 1080p
Формат видео: MPEG
Видео: MPEG4 Video (H264) 1920x1080 24fps 5462kbps
Аудио 1: AAC 44100Hz stereo 192kbps
Video
ID : 1
Format : AVC
Format/Info : Advanced Video Codec
Format profile : High@L4.0
Format settings, CABAC : No
Format settings, ReFrames : 1 frame
Format settings, GOP : M=1, N=12
Codec ID : avc1
Codec ID/Info : Advanced Video Coding
Duration : 15mn 2s
Bit rate mode : Variable
Bit rate : 5 462 Kbps
Maximum bit rate : 13.5 Mbps
Width : 1 920 pixels
Height : 1 080 pixels
Display aspect ratio : 16:9
Frame rate mode : Constant
Frame rate : 24.000 fps
Original frame rate : 29.970 fps
Color space : YUV
Chroma subsampling : 4:2:0
Bit depth : 8 bits
Scan type : Progressive
Bits/(Pixel*Frame) : 0.110
Stream size : 588 MiB (97%)

Audio
ID : 2
Format : AAC
Format/Info : Advanced Audio Codec
Format profile : LC
Codec ID : 40
Duration : 15mn 2s
Duration_LastFrame : -12ms
Bit rate mode : Constant
Bit rate : 192 Kbps
Channel(s) : 2 channels
Channel positions : Front: L R
Sampling rate : 44.1 KHz
Compression mode : Lossy
Stream size : 20.7 MiB (3%)

Vice President''s After School /副会長の放課後

Год производства: 2014 г.
Жанр: Clothed Buttocks Polygon Glasses Uniform School
Продолжительность: 17:26
Цензура: Есть во всех файлах

Язык: Японский
Озвучка: Оригинальная
Студия: sakamotoJ

Описание: Один Секрет вице-президента скрытого студенческого совета!

Качество видео: GameRip
Разрешение видео: 720p
Формат видео: MPEG
Видео кодек: H.264/AVC
Аудио кодек: MP3
Видео: MPEG4 Video (H264) 1280x720 30fps 2502kbps
Аудио 1: MP3 44100Hz stereo 256kbps
Video
ID : 0
Format : AVC
Format/Info : Advanced Video Codec
Format profile : Main@L5.1
Format settings, CABAC : Yes
Format settings, ReFrames : 1 frame
Codec ID : H264
Duration : 17mn 25s
Bit rate : 2 503 Kbps
Width : 1 280 pixels
Height : 720 pixels
Display aspect ratio : 16:9
Frame rate : 30.000 fps
Color space : YUV
Chroma subsampling : 4:2:0
Bit depth : 8 bits
Scan type : Progressive
Bits/(Pixel*Frame) : 0.091
Stream size : 312 MiB (90%)

Audio
ID : 1
Format : MPEG Audio
Format version : Version 1
Format profile : Layer 3
Codec ID : 55
Codec ID/Hint : MP3
Duration : 17mn 26s
Bit rate mode : Constant
Bit rate : 256 Kbps
Channel(s) : 2 channels
Sampling rate : 44.1 KHz
Compression mode : Lossy
Stream size : 31.9 MiB (9%)
Alignment : Split accross interleaves
Interleave, duration : 34 ms (1.01 video frame)
Interleave, preload duration : 117 ms
Writing library : LAMELAME_MA1VF“Fе”2›


Vice President''s After School SP /副会長の放課後SP

Год производства: 2014 г.
Жанр: Clothed, Buttock,s Breasts, Bondage, School
Продолжительность: 17:56
Цензура: Есть во всех файлах

Язык: Японский
Озвучка: Оригинальная
Студия: sakamotoJ

Описание:
Bице-президента скрытого студенческого совета возвращается!
Получитье этат специальний выпуск аниме стиле полный 3DCG анимации.

Качество видео: GameRip
Разрешение видео: 720p
Формат видео: MPEG
Видео: MPEG4 Video (H264) 1280x720 30fps 4008kbps
Аудио 1: MP3 44100Hz stereo 256kbps
Video
ID : 0
Format : AVC
Format/Info : Advanced Video Codec
Format profile : Main@L5.1
Format settings, CABAC : Yes
Format settings, ReFrames : 1 frame
Codec ID : H264
Duration : 17mn 56s
Bit rate : 4 009 Kbps
Width : 1 280 pixels
Height : 720 pixels
Display aspect ratio : 16:9
Frame rate : 30.000 fps
Color space : YUV
Chroma subsampling : 4:2:0
Bit depth : 8 bits
Scan type : Progressive
Bits/(Pixel*Frame) : 0.145
Stream size : 514 MiB (94%)

Audio
ID : 1
Format : MPEG Audio
Format version : Version 1
Format profile : Layer 3
Codec ID : 55
Codec ID/Hint : MP3
Duration : 17mn 56s
Bit rate mode : Constant
Bit rate : 256 Kbps
Channel(s) : 2 channels
Sampling rate : 44.1 KHz
Compression mode : Lossy
Stream size : 32.8 MiB (6%)
Alignment : Split accross interleaves
Interleave, duration : 34 ms (1.02 video frame)
Interleave, preload duration : 116 ms
Трекер:  [ 29-Июн-2016 20:00 ]

Размер .torrent файла 15 KB


Размер: 1.47 GB
Хэш (hash) релиза: edad669818149def7c04122326f42a85292e6cd0
Подписка на обновления:

Еще никто не оставлял запись к записи скачать торрент Dorei Nikki . Будь первым!

!Обратная связь
//main.js show_panel