Статистика раздачи
Размер:  1.91 GB   |    Зарегистрирован:  1 год 5 месяцев   |    .torrent скачан:  23 раза   |   

Пиры будут получены при скачивании

 

Скачать порно Masque / Маскарад через торрент бесплатно :: UnionPron.org

 
 
Автор Сообщение

Sakura

avatar Sakura


Masque / Маскарад

Год производства: 1996 г.
Страна: USA
Жанр: Feature
Продолжительность: 01:35:26
Язык: Английский

Режиссер: Edwin Durrell
Студия: VCA

В ролях: Asia Carrera, Jill Kelly, Juli Ashton, Missy, Stephanie Swift, Alex Sanders, Bobby Vitale, Jake Steed, Michael J. Cox, Mickey G., Peter North, Sean Rider, Tom Byron, Vince Vouyer

Описание: Эдвин Даррелл - человек, который создал дико популярный "Every Woman Has a Fantasy" и сериал "1001 Erotic Nights", представляет свой очередной фильм - "Маскарад". Когда шестеро давних друзей предаются фантазиям о сексе с друг другом, реальность превосходит самые смелые мечты.

Разбит на эпизоды: Да
Доп. информация: IAFD

Исходник: [url=...1747953]DVD[/url]
Спасибо: PsyOm3

Качество видео: DVDRip-AVC
Формат видео: MKV
Видео: x264 | 704x536 | 29,970 кадров/сек | 2621 Кбит/сек | 0.232
Аудио: AC-3 | 48,0 КГц | 2 канала | 192 Кбит/сек
Scene 1. Asia Carrera, Alex Sanders
Scene 2. Asia Carrera, Juli Ashton, Alex Sanders
Scene 3. Jill Kelly, Tom Byron
Scene 4. Juli Ashton, Stephanie Swift, Bobby Vitale, Jake Steed, Peter North, Sean Rider, Vince Vouyer
Scene 5. Jill Kelly, Missy, Mickey G., Tom Byron
Scene 6. Asia Carrera, Juli Ashton
Scene 7. Asia Carrera, Jill Kelly, Juli Ashton, Alex Sanders, Michael J. Cox, Tom Byron
Формат : Matroska
Версия формата : Version 2
Размер файла : 1,91 Гбайт
Продолжительность : 1 ч. 35 м.
Общий поток : 2870 Кбит/сек
Дата кодирования : UTC 2016-06-17 16:40:34
Программа кодирования : mkvmerge v7.9.0 (''Birds'') 32bit
Библиотека кодирования : libebml v1.3.1 + libmatroska v1.4.2

Видео
Идентификатор : 1
Формат : AVC
Формат/Информация : Advanced Video Codec
Профиль формата : High@L3.1
Параметр CABAC формата : Да
Параметр ReFrames формата : 8 кадров
Идентификатор кодека : V_MPEG4/ISO/AVC
Продолжительность : 1 ч. 35 м.
Битрейт : 2621 Кбит/сек
Ширина : 704 пикселя
Высота : 536 пикселей
Соотношение сторон : 4:3
Режим частоты кадров : Постоянный
Частота кадров : 29,970 (30000/1001) кадров/сек
Цветовое пространство : YUV
Субдискретизация насыщенности : 4:2:0
Битовая глубина : 8 бит
Тип развёртки : Прогрессивная
Бит/(Пиксели*Кадры) : 0.232
Размер потока : 1,75 Гбайт (91%)
Библиотека кодирования : x264 core 148 r2692 64f4e24
Настройки программы : cabac=1 / ref=8 / deblock=1:0:0 / analyse=0x3:0x133 / me=umh / subme=9 / psy=1 / psy_rd=1.00:0.05 / mixed_ref=1 / me_range=16 / chroma_me=1 / trellis=2 / 8x8dct=1 / cqm=0 / deadzone=21,11 / fast_pskip=1 / chroma_qp_offset=-3 / threads=4 / lookahead_threads=1 / sliced_threads=0 / nr=0 / decimate=1 / interlaced=0 / bluray_compat=0 / constrained_intra=0 / bframes=5 / b_pyramid=2 / b_adapt=2 / b_bias=0 / direct=1 / weightb=1 / open_gop=0 / weightp=2 / keyint=250 / keyint_min=25 / scenecut=40 / intra_refresh=0 / rc=crf / mbtree=0 / crf=18.0 / qcomp=0.80 / qpmin=0 / qpmax=69 / qpstep=4 / ip_ratio=1.40 / pb_ratio=1.30 / aq=3:1.00
Default : Да
Forced : Нет
Цветовой диапазон : Limited
Коэффициенты матрицы : BT.601

Аудио
Идентификатор : 2
Формат : AC-3
Формат/Информация : Audio Coding 3
Расширение режима : CM (complete main)
Параметр Endianness формата : Big
Идентификатор кодека : A_AC3
Продолжительность : 1 ч. 35 м.
Вид битрейта : Постоянный
Битрейт : 192 Кбит/сек
Каналы : 2 канала
Расположение каналов : Front: L R
Частота : 48,0 КГц
Частота кадров : 31,250 кадров/сек (1536 spf)
Метод сжатия : С потерями
Размер потока : 131 Мбайт (7%)
Default : Да
Forced : Нет
[url]...1328891[/url]
Трекер:  [ 18-Июн-2016 14:00 ]

Размер .torrent файла 20 KB


Размер: 1.91 GB
Хэш (hash) релиза: 096c5b8fa604e9f0719dbf95271edb5c529052e4
Подписка на обновления:

Еще никто не оставлял запись к записи скачать торрент Masque Маскарад . Будь первым!

!Обратная связь
//main.js show_panel