Статистика раздачи
Размер:  1.46 GB   |    Зарегистрирован:  1 год 3 месяца   |    .torrent скачан:  63 раза   |   

Пиры будут получены при скачивании

 

Скачать порно Sweet Alice / Сладкая Элис через торрент бесплатно :: UnionPron.org

 
 
Автор Сообщение

Sakura

avatar Sakura


Sweet Alice / Сладкая Элис

Год производства: 1983 г.
Страна: USA
Жанр: classic, feature
Продолжительность: 01:22:26
Язык: Английский

Режиссер: Adele Robbins
Студия: VCX

В ролях: Seka, Honey Wilder, Desiree Cousteau, Cindy Shepard, Lysa Thatcher, Becky Savage, Jamie Gillis, Bill Margold, Mike Eyke, Paul Thomas, John Holmes, Kevin James

Описание: "Sweet Alice" combines the magic formula of a bittersweet love story, topnotch acting, high production values and a lush musical score.
A lovable cowboy (Kevin James) arrives in Hollywood in search of his runaway wife (Seka). He''s aided by a beautiful but no-nonsense detective (Honey Wilder) who finds out that the wife has become an X-rated film star.

Доп. информация: IAFD

Исходник: [url=...1011263]DVD[/url]
Спасибо: Fora68

Качество видео: DVDRip-AVC
Формат видео: MKV
Видео: x264 | 695x532 | 23,976 кадра/сек | 2253 Кбит/сек | 0.254
Аудио: AC-3 | 48,0 КГц | 2 канала | 224 Кбит/сек
Формат : Matroska
Версия формата : Version 2
Размер файла : 1,46 Гбайт
Продолжительность : 1 ч. 22 м.
Общий поток : 2527 Кбит/сек
Дата кодирования : UTC 2016-06-15 10:05:57
Программа кодирования : mkvmerge v7.9.0 (''Birds'') 32bit
Библиотека кодирования : libebml v1.3.1 + libmatroska v1.4.2
Обложка : Yes
Attachments : cover.jpg

Видео
Идентификатор : 1
Формат : AVC
Формат/Информация : Advanced Video Codec
Профиль формата : High@L3.1
Параметр CABAC формата : Да
Параметр ReFrames формата : 8 кадров
Идентификатор кодека : V_MPEG4/ISO/AVC
Продолжительность : 1 ч. 22 м.
Битрейт : 2253 Кбит/сек
Ширина : 696 пикселей
Высота : 532 пикселя
Соотношение сторон : 4:3
Режим частоты кадров : Постоянный
Частота кадров : 23,976 (24000/1001) кадра/сек
Цветовое пространство : YUV
Субдискретизация насыщенности : 4:2:0
Битовая глубина : 8 бит
Тип развёртки : Прогрессивная
Бит/(Пиксели*Кадры) : 0.254
Размер потока : 1,30 Гбайт (89%)
Библиотека кодирования : x264 core 148 r2692 64f4e24
Настройки программы : cabac=1 / ref=8 / deblock=1:0:0 / analyse=0x3:0x133 / me=umh / subme=9 / psy=1 / psy_rd=1.00:0.10 / mixed_ref=1 / me_range=16 / chroma_me=1 / trellis=2 / 8x8dct=1 / cqm=0 / deadzone=21,11 / fast_pskip=1 / chroma_qp_offset=-3 / threads=4 / lookahead_threads=1 / sliced_threads=0 / nr=0 / decimate=1 / interlaced=0 / bluray_compat=0 / constrained_intra=0 / bframes=5 / b_pyramid=2 / b_adapt=2 / b_bias=0 / direct=1 / weightb=1 / open_gop=0 / weightp=2 / keyint=250 / keyint_min=23 / scenecut=40 / intra_refresh=0 / rc=crf / mbtree=0 / crf=17.0 / qcomp=0.70 / qpmin=0 / qpmax=69 / qpstep=4 / ip_ratio=1.40 / pb_ratio=1.30 / aq=2:0.90
Default : Да
Forced : Нет
Цветовой диапазон : Limited
Коэффициенты матрицы : BT.601

Аудио
Идентификатор : 2
Формат : AC-3
Формат/Информация : Audio Coding 3
Профиль формата : Dolby Digital
Расширение режима : CM (complete main)
Параметр Endianness формата : Big
Идентификатор кодека : A_AC3
Продолжительность : 1 ч. 22 м.
Вид битрейта : Постоянный
Битрейт : 224 Кбит/сек
Каналы : 2 канала
Расположение каналов : Front: L R
Частота : 48,0 КГц
Частота кадров : 31,250 кадров/сек (1536 spf)
Метод сжатия : С потерями
Задержка видео : 29 мс.
Размер потока : 132 Мбайт (9%)
Default : Да
Forced : Нет

Меню
00:04:09.000 : :Scene 1. Becky Savage, Seka
00:13:59.000 : :Scene 2. Desiree Cousteau, Seka
00:21:30.000 : :Scene 3. Cindy Shepard
00:30:45.000 : :Scene 4. Seka
00:39:30.000 : :Scene 5. Lysa Thatcher, Seka
00:49:29.000 : :Scene 6. Becky Savage & Seka
00:53:02.000 : :Scene 7. Honey Wilder
01:02:23.000 : :Scene 8. Seka
01:08:49.000 : :Scene 9. Honey Wilder
Трекер:  [ 15-Июн-2016 16:00 ]

Размер .torrent файла 15 KB


Размер: 1.46 GB
Хэш (hash) релиза: 1c1bdddbc4b4f13f0e2954c53fe1a6c47e70e2d7
Подписка на обновления:

Еще никто не оставлял запись к записи скачать торрент Sweet Alice Сладкая Элис . Будь первым!

!Обратная связь
//main.js show_panel