Статистика раздачи
Размер:  1.94 GB   |    Зарегистрирован:  1 год   |    .torrent скачан:  58 раз   |   

Пиры будут получены при скачивании

 

Скачать порно Fäbodjäntan / Fabodjantan / Рог викингов / Деревенщина +sub через торрент бесплатно :: UnionPron.org

 
 
Автор Сообщение

Sakura

avatar Sakura


Fäbodjäntan / Fabodjantan / Рог викингов / Деревенщина

Год производства: 1978
Страна: Sweden
Жанр: Classic, Comedy, Fantasy
Продолжительность: 01:49:28
Язык: [b]Шведский
Перевод: [b]Субтитры[/b], мой перевод с английского[/b]
Субтитры: русские, английские x2
Режиссёр:: Joseph W. Sarno
Сценарий:: Joseph W. Sarno
Студия:: Gebe Film

В ролях:
Leena ... Fäbodjäntan Monika (Monika Skoglund) (as Leena Hiltunen)
Anne ... Britt''s Mother
Tomas ... Björn Johansson - Missionary
Marie Bergman ... Agneta Johansson (as Marie)
Anita Berglund ... Britt Kindberg (as Anita)
Knud Jörgensen ... Olle Hansson - Farmhand (as Knut)




Описание:
Главная героиня фильма Моника - жительница небольшой деревушки, расположенной на севере Швеции. Она женщина очень страстная, любит сказочные истории, считает себя дочерью принцессы Лапландии и мечтает заняться сексом на древней могиле! Однажды она нашла древний рог викинга, который по легенде, использовался для возбуждения женщин, еще во времена Болтона Эрик-Дора. Ну как тут было не проверить его в действии! Сначала Моника испытала рог на коровах, а потом ей захотелось услышать стоны, приехавший в гости евангелистки...


Дополнительная информация:
Личная оценка фильма 8 из 10. Не шедевр, но прикольный. Снял по одному балу за отсутствие анала и слабоватую игру актёров, кроме главной героини. А, что до актрисы, сыгравшей Монику, то только ради неё и стоит этот фильм посмотреть! Настоящая театральная актриса, наверное, она опоздала на свою основную работу в театре и забрела на съёмочную площадку, чтобы поразвлечься. В итоге, своим актёрским мастерством она вытянула фильм на очень достойный уровень.
В переводе ненормативная лексика имеется, она даже на слух со шведского улавливается, например, в сцене, когда Брит ругается с Моникой в лесу.
Переводил с английских сабов с этого [url=...1819433]DVD[/url], и частично с английских фансабов с синемагеддона. Хотел рипануть тот DVD в DVDRip-AVC, но при проверке, оказалось, что он сделан с VHS, а качество картинки, даже чуть хуже, чем в [url=...565026]старой раздаче VHSRip[/url], сравнение http://screenshotcomparison.com/comparison/173332, поэтому за основу взял тот старый видеоряд, прикрутил сабы, подписал главы, сделал раздачу...
При наличии проблем с отображением субтитров рекомендую Daum PotPlayer, с ним у меня проблем не возникало при отображении любых субтитров в любых форматах.

Качество видео: VHSRip
Формат видео: mkv
Видео: XviD / 656x496 / 25,00 fps / Битрейт: 2298 kbps / 0.283 bit/pixel
Аудио: Swedish / AC3 / 2.0 / 192 kbps
Субтитры: SRT - Rus, 2xEng
Главы: подписанные русские 20 шт.
00:00:18.000 : ru:Хорошо в деревне летом
00:08:41.000 : ru:Дочь принцессы Лапландии
00:11:15.000 : ru:Байки из тазика
00:13:58.000 : ru:Рог викинга
00:17:20.000 : ru:Грех после церкви
00:25:04.000 : ru:Подруги ругаются
00:26:22.000 : ru:Легенда о роге
00:29:00.000 : ru:У древней могилы
00:30:51.000 : ru:Агнета расстроена
00:33:52.000 : ru:Брит и Монике не до сна
00:47:38.000 : ru:Легенда о похоронах Эрик-Дора
00:51:56.000 : ru:Всем хочется рога Эрик-Дора
00:59:08.000 : ru:Нету хера под рукой - сделай это с колбасой!
01:04:01.000 : ru:Моника VS Агнета
01:07:30.000 : ru:У пастора большой
01:11:46.000 : ru:... и помолишься!
01:19:15.000 : ru:Затейница Брит
01:26:25.000 : ru:Моника и Пастор
01:30:26.000 : ru:Середина лета
01:46:45.000 : ru:Прощаемся до следущего лета
Общее
Уникальный идентификатор : 179026445375418096264449449658916391974

(0x86AF3D3C1E1D7D4C9E75D42B7541CC26)
Полное имя : F:\Fabodjantan.1978.VHSRip.Swe.Sub.Rus.Eng.mkv
Формат : Matroska
Версия формата : Version 4 / Version 2
Размер файла : 1,94 Гбайт
Продолжительность : 1 ч. 49 м.
Общий поток : 2541 Кбит/сек
Название фильма : Fäbodjäntan
Дата кодирования : UTC 2016-06-06 15:10:39
Программа кодирования : mkvmerge v9.2.0 (''Photograph'') 32bit
Библиотека кодирования : libebml v1.3.3 + libmatroska v1.4.4
DURATION : 01:49:04.624000000
NUMBER_OF_FRAMES : 470
NUMBER_OF_BYTES : 18858
_STATISTICS_WRITING_APP : mkvmerge v9.2.0 (''Photograph'') 32bit
_STATISTICS_WRITING_DATE_UTC : 2016-06-06 15:10:39
_STATISTICS_TAGS : BPS DURATION NUMBER_OF_FRAMES NUMBER_OF_BYTES

Видео
Идентификатор : 1
Формат : MPEG-4 Visual
Профиль формата : Advanced Simple@L5
Параметр BVOP формата : 1
Параметр QPel формата : Нет
Параметр GMC формата : Без точки перехода
Параметр матрицы формата : Default (MPEG)
Режим смешивания : Сжатый битовый поток
Идентификатор кодека : V_MS/VFW/FOURCC / XVID
Идентификатор кодека/Подсказка : XviD
Продолжительность : 1 ч. 49 м.
Битрейт : 2298 Кбит/сек
Ширина : 656 пикселей
Высота : 496 пикселей
Соотношение сторон : 4:3
Режим частоты кадров : Постоянный
Частота кадров : 25,000 кадров/сек
Цветовое пространство : YUV
Субдискретизация насыщенности : 4:2:0
Битовая глубина : 8 бит
Тип развёртки : Прогрессивная
Метод сжатия : С потерями
Бит/(Пиксели*Кадры) : 0.283
Размер потока : 1,76 Гбайт (90%)
Заголовок : Fäbodjäntan (1978)[torrents.ru]
Библиотека кодирования : XviD 1.2.0.dev47 (UTC 2006-11-01)
Default : Нет
Forced : Нет

Аудио
Идентификатор : 2
Формат : AC-3
Формат/Информация : Audio Coding 3
Расширение режима : CM (complete main)
Параметр Endianness формата : Big
Идентификатор кодека : A_AC3
Продолжительность : 1 ч. 49 м.
Вид битрейта : Постоянный
Битрейт : 192 Кбит/сек
Каналы : 2 канала
Расположение каналов : Front: L R
Частота : 48,0 КГц
Метод сжатия : С потерями
Размер потока : 150 Мбайт (8%)
Заголовок : Original AC3 2.0 192 kbps
Язык : Swedish
Default : Нет
Forced : Нет

Текст #1
Идентификатор : 3
Формат : UTF-8
Идентификатор кодека : S_TEXT/UTF8
Идентификатор кодека/Информация : UTF-8 Plain Text
Язык : Russian
Default : Да
Forced : Да

Текст #2
Идентификатор : 4
Формат : UTF-8
Идентификатор кодека : S_TEXT/UTF8
Идентификатор кодека/Информация : UTF-8 Plain Text
Язык : English
Default : Нет
Forced : Нет

Текст #3
Идентификатор : 5
Формат : UTF-8
Идентификатор кодека : S_TEXT/UTF8
Идентификатор кодека/Информация : UTF-8 Plain Text
Заголовок : FANSUBS
Язык : English
Default : Нет
Forced : Нет

Меню
00:00:18.000 : ru:Хорошо в деревне летом
00:08:41.000 : ru:Дочь принцессы Лапландии
00:11:15.000 : ru:Байки из тазика
00:13:58.000 : ru:Рог викинга
00:17:20.000 : ru:Грех после церкви
00:25:04.000 : ru:Подруги ругаются
00:26:22.000 : ru:Легенда о роге
00:29:00.000 : ru:У древней могилы
00:30:51.000 : ru:Агнета расстроена
00:33:52.000 : ru:Брит и Монике не до сна
00:47:38.000 : ru:Легенда о похоронах Эрик-Дора
00:51:56.000 : ru:Всем хочется рога Эрик-Дора
00:59:08.000 : ru:Нету хера под рукой - сделай это с колбасой!
01:04:01.000 : ru:Моника VS Агнета
01:07:30.000 : ru:У пастора большой
01:11:46.000 : ru:... и помолишься!
01:19:15.000 : ru:Затейница Брит
01:26:25.000 : ru:Моника и Пастор
01:30:26.000 : ru:Середина лета
01:46:45.000 : ru:Прощаемся до следущего лета
Трекер:  [ 06-Июн-2016 20:00 ]

Размер .torrent файла 20 KB


Размер: 1.94 GB
Хэш (hash) релиза: 2c24af987987fb823b775cfd24c5080b5fdd04a5
Подписка на обновления:

Еще никто не оставлял запись к записи скачать торрент Fäbodjäntan Fabodjantan . Будь первым!

!Обратная связь
//main.js show_panel