Статистика раздачи
Размер:  1.38 GB   |    Зарегистрирован:  1 год 4 месяца   |    .torrent скачан:  20 раз   |   

Пиры будут получены при скачивании

 

Скачать порно Manuela il mistero della perversione / Manuela Reine de la perversion / Мануэлла - мистическая женщина через торрент бесплатно :: UnionPron.org

 
 
Автор Сообщение

Sakura

avatar Sakura


Manuela il mistero della perversione | Manuela Reine de la perversion | Мануэлла - мистическая женщина
[url=...1287695] [/url]
Год производства: 2000 г.
Страна: Италия | Italy
Жанр: Feature
Продолжительность: 02:22:08
Язык: Французский | French

Режиссер: Patrick Deauville
Студия: FM Video

В ролях: Andrea Monti, Andrea Nobili, [url=...1815280]Betty Anderson[/url], Eros Cristaldi, July Blond, Zenza Raggi, [url=...1536769]La Venere Bianca[/url], Laura Conti, [url=...1287695]Laura Angel[/url], Philippe Dean, [url=...2074743]Rebecca Ramada[/url], Remigio Zampa, Sonia Eyes, [url=...2147120]Stephanie Silver[/url], Tatiana Boccia, Matriosca.

Описание: Мануэлла живёт в роскоши и богатстве. Секс для неё является смыслом жизни, её шпиндихулят все - начиная от мужа, у которого шлямпен, как у верблюда и заканчивая разными левыми папуасами. Влюбился в Мануэлку юный Зенза, захотел ей приписюлить, да обломался слегка. Естественно - шо это *ля, за имя такое - Зенза? Падруги узнают засмеют.

Scene Breakdowns:
Scene 1. [url=...1536769]La Venere Bianca[/url], Philippe Dean
Scene 2. July Blond, Stephanie Silver, Andrea Nobili, Remigio Zampa
Scene 3. Tatiana Boccia, Zenza Raggi
Scene 4. [url=...1287695]Laura Angel[/url], [url=...2074743]Rebecca Ramada[/url], Andrea Monti, Andrea Nobili
Scene 5. [url=...1536769]La Venere Bianca[/url], Andrea Monti, guy
Scene 6. girl, guy
Scene 7. [url=...1536769]La Venere Bianca[/url], Remigio Zampa
Scene 8. July Blond, Eros Cristaldi, Remigio Zampa
Scene 9. [url=...1536769]La Venere Bianca[/url], Laura Conti, [url=...2147120]Stephanie Silver[/url], Remigio Zampa
Scene 10. girl, July Blond, Matriosca, Andrea Monti, guy, Philippe Dean, Remigio Zampa
Scene 11. [url=...1536769]La Venere Bianca[/url], Zenza Raggi
General
Format : MPEG-4
Format profile : Base Media / Version 2
Codec ID : mp42
File size : 1.38 GiB
Duration : 2h 22mn
Overall bit rate : 1 389 Kbps
Writing application : TMPGEnc Video Mastering Works 5 Version. 5.0.6.38
Video #2
ID : 2
Format : AVC
Format/Info : Advanced Video Codec
Format profile : High@L3.0
Format settings, CABAC : Yes
Format settings, ReFrames : 4 frames
Codec ID : avc1
Codec ID/Info : Advanced Video Coding
Duration : 2h 22mn
Bit rate mode : Variable
Bit rate : 1 289 Kbps
Width : 672 pixels
Height : 504 pixels
Display aspect ratio : 4/3
Frame rate mode : Constant
Frame rate : 25.000 fps
Resolution : 24 bits
Colorimetry : 4:2:0
Scan type : Progressive
Bits/(Pixel*Frame) : 0.152
Stream size : 1.28 GiB (93%)
Audio #1
ID : 1
Format : AAC
Format/Info : Advanced Audio Codec
Format version : Version 4
Format profile : LC
Format settings, SBR : No
Codec ID : 40
Duration : 2h 22mn
Bit rate mode : Variable
Bit rate : 96.0 Kbps
Maximum bit rate : 576 Kbps
Channel(s) : 2 channels
Channel positions : L R
Sampling rate : 48.0 KHz
Resolution : 16 bits
Stream size : 97.8 MiB (7%)
Качество видео: DVDRip
Формат видео: MP4
Видео: AVC, 672x504 (4:3), 25.000 fps, 1 289 Kbps (0.152 bit/pixel)
Аудио: AAC LC, 48.0 KHz, 2 ch, 96.0 Kbps, VBR
[url=...1010260]Manuela (1.11 GB) - без звука[/url]
Трекер:  [ 29-Май-2016 22:00 ]

Размер .torrent файла 14 KB


Размер: 1.38 GB
Хэш (hash) релиза: e391a517887ed0eb90651696e2dddd11ff37db10
Подписка на обновления:

Еще никто не оставлял запись к записи скачать торрент Manuela il mistero della perversione Manuela Reine de la perversion . Будь первым!

!Обратная связь
//main.js show_panel