Статистика раздачи
Размер:  1.19 GB   |    Зарегистрирован:  7 месяцев   |    .torrent скачан:  10 раз   |   

Пиры будут получены при скачивании

 

Скачать порно Die Lolita - Schule / Лолита - Школьница , Sylvie Laforet ) через торрент бесплатно :: UnionPron.org

 
 
Автор Сообщение

Sakura

avatar Sakura


Die Lolita - Schule | Лолита - Школьница

[url=...1209582] [/url]
Год производства: 1994 г.
Страна: Germany | Германия
Жанр: Feature
Продолжительность: 01:19:00
Язык: Немецкий | German

Режиссер: Jean-Yves Le Castel
Студия: XY-Video

В ролях:
Actresses: [url=...1209582]Kelly Trump[/url], Sandra (aka Angelique Rose), Sylvie Laforet, brunette, german short-hair honeyblonde
Actors: Yves Lecastel (aka Jocelyn), Stephan Krämer (aka Steve Vincent), Karim (aka Zenza Raggi)

Описание: Молодые школьницы приступают к изучению предмета "Половое воспитание"!

Scene breakdowns:
Scene 1 – [url=...1209582]Kelly Trump[/url], brunette, Yves Lecastel
Scene 2 – Sylvie Laforet, Zenza Raggi
Scene 3 – Sandra, familiar looking german short-hair honeyblonde lez]
Scene 4 - Sylvie Laforet [anal], Yves Lecastel
Scene 5 - Sandra, Steve Vincent
General
Format : MPEG-4
Format profile : Base Media / Version 2
Codec ID : mp42
File size : 1.19 GiB
Duration : 1h 19mn
Overall bit rate : 2 126 Kbps
Encoded date : UTC 2016-05-22 18:12:06
Tagged date : UTC 2016-05-22 18:44:29
Video #1
ID : 1
Format : AVC
Format/Info : Advanced Video Codec
Format profile : Main@L3.1
Format settings, CABAC : Yes
Format settings, ReFrames : 2 frames
Codec ID : avc1
Codec ID/Info : Advanced Video Coding
Duration : 1h 19mn
Bit rate mode : Variable
Bit rate : 1 995 Kbps
Maximum bit rate : 4 851 Kbps
Width : 768 pixels
Height : 576 pixels
Display aspect ratio : 4/3
Frame rate mode : Constant
Frame rate : 25.000 fps
Resolution : 24 bits
Colorimetry : 4:2:0
Scan type : Progressive
Bits/(Pixel*Frame) : 0.180
Stream size : 1.11 GiB (94%)
Encoded date : UTC 2016-05-22 18:12:06
Tagged date : UTC 2016-05-22 18:44:29
Audio #2
ID : 2
Format : AAC
Format/Info : Advanced Audio Codec
Format version : Version 4
Format profile : LC
Format settings, SBR : No
Codec ID : 40
Duration : 1h 19mn
Bit rate mode : Variable
Bit rate : 128 Kbps
Maximum bit rate : 142 Kbps
Channel(s) : 2 channels
Channel positions : L R
Sampling rate : 44.1 KHz
Resolution : 16 bits
Stream size : 73.2 MiB (6%)
Title : und
Encoded date : UTC 2016-05-22 18:12:06
Tagged date : UTC 2016-05-22 18:44:29
Качество видео: VHSRip
Формат видео: MP4
Видео: AVC, 768x576 (4:3), 25.000 fps, 1 995 Kbps (0.180 bit/pixel)
Аудио: AAC LC, 44.1 KHz, 2 ch, 128 Kbps, VBR
[url=...1642412]Die Lolita - Schule (775 MB)[/url]
[url=...1151292]Die Lolita-Schule (695 MB)[/url]
Трекер:  [ 27-Май-2016 22:00 ]

Размер .torrent файла 12 KB


Размер: 1.19 GB
Хэш (hash) релиза: f3b13e01d51de7fd534d9a2d52032e7d215000c5
Подписка на обновления:

Еще никто не оставлял запись к записи скачать торрент Die Lolita - Schule Лолита - Школьница . Будь первым!

!Обратная связь
//main.js show_panel