Статистика раздачи
Размер:  1.29 GB   |    Зарегистрирован:  7 месяцев   |    .torrent скачан:  45 раз   |   

Пиры будут получены при скачивании

 

Скачать порно Every Woman has a Fantasy 1 / У Каждой женщины есть фантазии 1 через торрент бесплатно :: UnionPron.org

 
 
Автор Сообщение

Sakura

avatar Sakura


Every Woman has a Fantasy 1 / У каждой женщины есть фантазии 1

Год производства: 1984 г.
Страна: USA
Жанр: Feature, Classic
Продолжительность: 01:20:24
Язык: Английский

Режиссер: Edwin Brown
Студия: VCA

В ролях: Rachel Ashley, Lisa Lake, Erica Boyer, Martina, Shantell Day, John Leslie, Francois, Robert Byrne, Sasha Gabor

Описание: The fantasies the ladies tell one another provide the sex scenes, and do not be deceived into thinking they are soft on sex - this film has universal appeal. Women tell me it''s sensitive and men tell me it''s downright hot. The dialogue is racy and sexy as opposed to foul or dirty. The best scene is Rachel''s hotel room fantasy with herself, Martina and Robert Byrne.

Доп. информация: IAFD
Сцена 3 на диске отсутствует т.к. после выхода фильма выяснилось, что участнице (Kristara Barrington) не момент съёмки не было 18-ти. В переизданиях этой сцены уже нет.

Исходник [url=...1010170]DVD9[/url]
Спасибо antraxruss

Качество видео: DVDRip-AVC
Формат видео: MKV
Видео: x264 | 688x528 | 4:3 | 23,976 кадра/сек | 2066 Кбит/сек | 0.237
Аудио: AC-3 | 48,0 КГц | 2 канала | 192 Кбит/сек
Формат : Matroska
Версия формата : Version 2
Размер файла : 1,29 Гбайт
Продолжительность : 1 ч. 20 м.
Общий поток : 2303 Кбит/сек
Дата кодирования : UTC 2016-05-23 19:11:28
Программа кодирования : mkvmerge v7.9.0 (''Birds'') 32bit
Библиотека кодирования : libebml v1.3.1 + libmatroska v1.4.2
Обложка : Yes
Attachments : cover.jpg

Видео
Идентификатор : 1
Формат : AVC
Формат/Информация : Advanced Video Codec
Профиль формата : High@L3.1
Параметр CABAC формата : Да
Параметр ReFrames формата : 8 кадров
Идентификатор кодека : V_MPEG4/ISO/AVC
Продолжительность : 1 ч. 20 м.
Битрейт : 2066 Кбит/сек
Ширина : 688 пикселей
Высота : 528 пикселей
Соотношение сторон : 4:3
Режим частоты кадров : Постоянный
Частота кадров : 23,976 (24000/1001) кадра/сек
Цветовое пространство : YUV
Субдискретизация насыщенности : 4:2:0
Битовая глубина : 8 бит
Тип развёртки : Прогрессивная
Бит/(Пиксели*Кадры) : 0.237
Размер потока : 1,16 Гбайт (90%)
Библиотека кодирования : x264 core 148 r2692 64f4e24
Настройки программы : cabac=1 / ref=8 / deblock=1:0:0 / analyse=0x3:0x133 / me=umh / subme=9 / psy=1 / psy_rd=1.00:0.20 / mixed_ref=1 / me_range=24 / chroma_me=1 / trellis=2 / 8x8dct=1 / cqm=0 / deadzone=21,11 / fast_pskip=1 / chroma_qp_offset=-3 / threads=4 / lookahead_threads=1 / sliced_threads=0 / nr=0 / decimate=1 / interlaced=0 / bluray_compat=0 / constrained_intra=0 / bframes=5 / b_pyramid=2 / b_adapt=2 / b_bias=0 / direct=1 / weightb=1 / open_gop=0 / weightp=2 / keyint=250 / keyint_min=23 / scenecut=40 / intra_refresh=0 / rc=crf / mbtree=0 / crf=17.0 / qcomp=0.70 / qpmin=0 / qpmax=69 / qpstep=4 / ip_ratio=1.40 / pb_ratio=1.30 / aq=2:1.00
Default : Да
Forced : Нет

Аудио
Идентификатор : 2
Формат : AC-3
Формат/Информация : Audio Coding 3
Расширение режима : CM (complete main)
Параметр Endianness формата : Big
Идентификатор кодека : A_AC3
Продолжительность : 1 ч. 20 м.
Вид битрейта : Постоянный
Битрейт : 192 Кбит/сек
Каналы : 2 канала
Расположение каналов : Front: L R
Частота : 48,0 КГц
Частота кадров : 31,250 кадров/сек (1536 spf)
Метод сжатия : С потерями
Размер потока : 110 Мбайт (8%)
Default : Да
Forced : Нет

Меню
00:01:20.000 : :Scene 1. Rachel Ashley
00:13:03.000 : :Scene 2. Erica Boyer
00:24:48.000 : :Scenes 4+5. Shantell Day
00:36:58.000 : :Scene 6. Rachel Ashley
00:00:00.000 : :Scene 7. Martina & Rachel Ashley
01:02:06.000 : :Scene 8. Lisa Lake
01:07:07.000 : :Scene 9. Rachel Ashley & Shantell Day
01:14:25.000 : :Scenes 10+11. Erica Boyer, Lisa Lake
AFAA Awards, 1984
Winner: Best Actor, John Leslie
Winner: Best Actress, Rachel Ashley

AVN Awards, 1985
Winner: Best Total Sexual Content: Film

XRCO Awards, 1984
Winner: Best Actress, Rachel Ashley
Winner: Best Screenplay
Winner: Best Film
Winner: Best Couple Scene, John Leslie, Rachel Ashley
Winner: Best Director, Edwin Durrell
[url]...820695[/url]
[url=...2030980]Every Woman has a Fantasy 2[/url][url=...1089227]Every Woman has a Fantasy 3[/url]
Трекер:  [ 25-Май-2016 14:30 ]

Размер .torrent файла 13 KB


Размер: 1.29 GB
Хэш (hash) релиза: 8f44fafd8110b21b0f75545a9c82e07e2d11ec35
Подписка на обновления:

Еще никто не оставлял запись к записи скачать торрент Every Woman has a Fantasy 1 У Каждой женщины есть фантазии 1 . Будь первым!

!Обратная связь
//main.js show_panel