Статистика раздачи
Размер:  1.34 GB   |    Зарегистрирован:  7 месяцев   |    .torrent скачан:  62 раза   |   

Пиры будут получены при скачивании

 

Скачать порно Coed Fever / Лихорадка с совместным обучением через торрент бесплатно :: UnionPron.org

 
 
Автор Сообщение

Sakura

avatar Sakura


Coed Fever / Лихорадка с совместным обучением

Год производства: 1980 г.
Страна: USA
Жанр: Feature, Classic
Продолжительность: 01:29:20
Язык: Английский

Режиссер: Robert McCallum (as Robert McCallun)
Студия: Caballero Home Video

В ролях: Annette Haven, Serena, Vanessa del Rio, Brooke West, Terri Dolan (Debbie Davison), Piper Smith (Devon Harrison), Gloria Harrison, Lisa De Leeuw, Lysa Thatcher, Samantha Fox, Tawny Pearl, Aaron Stuart, Don Fernando, Eric Stein, Jamie Gillis, Paul Baressi, John Leslie, Jon Martin, Michael Morrison, Mike Horner, R.J. Reynolds, Ron Jeremy

Описание:
Владелец новостного журнала решил сделать на первой полосе историю о женском клубе своей дочери. Администрация колледжа видит шанс завоевать популярность для школы, но боится, что некоторые девушки имеют парней и проект может провалится...

Доп. информация: IAFD
Исходник [url=...1152651]DVD[/url] Спасибо g722

Качество видео: DVDRip-AVC
Формат видео: MKV
Видео: x264 | 688x528 | 4:3 | 23,976 кадра/сек | 1919 Кбит/сек | 0.220
Аудио: AC-3 | 48,0 КГц | 2 канала | 192 Кбит/сек
Формат : Matroska
Версия формата : Version 2
Размер файла : 1,34 Гбайт
Продолжительность : 1 ч. 29 м.
Общий поток : 2154 Кбит/сек
Дата кодирования : UTC 2016-05-17 12:27:32
Программа кодирования : mkvmerge v7.9.0 (''Birds'') 32bit
Библиотека кодирования : libebml v1.3.1 + libmatroska v1.4.2
Обложка : Yes
Attachments : cover.jpg

Видео
Идентификатор : 1
Формат : AVC
Формат/Информация : Advanced Video Codec
Профиль формата : High@L3.1
Параметр CABAC формата : Да
Параметр ReFrames формата : 8 кадров
Идентификатор кодека : V_MPEG4/ISO/AVC
Продолжительность : 1 ч. 29 м.
Битрейт : 1919 Кбит/сек
Ширина : 688 пикселей
Высота : 528 пикселей
Соотношение сторон : 4:3
Режим частоты кадров : Постоянный
Частота кадров : 23,976 (23976/1000) кадра/сек
Цветовое пространство : YUV
Субдискретизация насыщенности : 4:2:0
Битовая глубина : 8 бит
Тип развёртки : Прогрессивная
Бит/(Пиксели*Кадры) : 0.220
Размер потока : 1,20 Гбайт (89%)
Библиотека кодирования : x264 core 148 r2692 64f4e24
Настройки программы : cabac=1 / ref=8 / deblock=1:0:0 / analyse=0x3:0x133 / me=umh / subme=9 / psy=1 / psy_rd=1.00:0.05 / mixed_ref=1 / me_range=24 / chroma_me=1 / trellis=2 / 8x8dct=1 / cqm=0 / deadzone=21,11 / fast_pskip=1 / chroma_qp_offset=-3 / threads=4 / lookahead_threads=1 / sliced_threads=0 / nr=0 / decimate=1 / interlaced=0 / bluray_compat=0 / constrained_intra=0 / bframes=4 / b_pyramid=2 / b_adapt=2 / b_bias=0 / direct=1 / weightb=1 / open_gop=0 / weightp=2 / keyint=250 / keyint_min=23 / scenecut=40 / intra_refresh=0 / rc=crf / mbtree=0 / crf=17.5 / qcomp=0.70 / qpmin=0 / qpmax=69 / qpstep=4 / ip_ratio=1.40 / pb_ratio=1.30 / aq=2:1.00
Язык : English
Default : Да
Forced : Нет

Аудио
Идентификатор : 2
Формат : AC-3
Формат/Информация : Audio Coding 3
Профиль формата : Dolby Digital
Расширение режима : CM (complete main)
Параметр Endianness формата : Big
Идентификатор кодека : A_AC3
Продолжительность : 1 ч. 29 м.
Вид битрейта : Постоянный
Битрейт : 192 Кбит/сек
Каналы : 2 канала
Расположение каналов : Front: L R
Частота : 48,0 КГц
Частота кадров : 31,250 кадров/сек (1536 spf)
Метод сжатия : С потерями
Задержка видео : 30 мс.
Размер потока : 123 Мбайт (9%)
Default : Да
Forced : Нет

Меню
00:00:09.000 : :Scene 1. Terri Dolan
00:02:45.000 : :Scene 2. Serena
00:15:14.000 : :Scene 3. Lisa De Leeuw
00:27:34.000 : :Scene 4. Piper Smith, Gloria Harrison
00:35:50.000 : :Scene 5. Vanessa del Rio
00:50:53.000 : :Scene 6. Samantha Fox
00:57:08.000 : :Scene 7. Lysa Thatcher & Tawny Pearl
00:59:23.000 : :Scenes 8,9,10,11,12. Tawny Pearl & Lysa Thatcher & Brooke West & Samantha Fox & Terri Dolan
01:04:30.000 : :Scene 13. Annette Haven, Samantha Fox
01:14:35.000 : :Scene 14. Brooke West
01:25:08.000 : :Scene 15. Lysa Thatcher, Tawny Pearl
01:25:31.000 : :Scene 16. Terri Dolan
01:26:36.000 : :Scenes 17,18,19. Annette Haven
Scene 1. Terri Dolan, Aaron Stuart
Scene 2. Serena, R.J. Reynolds
Scene 3. Lisa De Leeuw, Jamie Gillis
Scene 4. Piper Smith, Gloria Harrison, Jamie Gillis
Scene 5. Vanessa del Rio, Michael Morrison, Ron Jeremy
Scene 6. Samantha Fox, John Leslie
Scene 7. Lysa Thatcher, Tawny Pearl
Scene 8. Tawny Pearl
Scene 9. Lysa Thatcher
Scene 10. Brooke West
Scene 11. Samantha Fox
Scene 12. Terri Dolan
Scene 13. Annette Haven, Samantha Fox, Paul Baressi
Scene 14. Brooke West, Jon Martin
Scene 15. Lysa Thatcher, Tawny Pearl, Eric Stein
Scene 16. Terri Dolan, Mike Horner
Scene 17. Annette Haven, Don Fernando
Scene 18. Annette Haven, Eric Stein
Scene 19. Annette Haven, Paul Baressi
[url]...687307[/url]
Трекер:  [ 18-Май-2016 18:30 ]

Размер .torrent файла 14 KB


Размер: 1.34 GB
Хэш (hash) релиза: b1385eef679e8a70e00d22938d9125ac33f46a26
Подписка на обновления:

Еще никто не оставлял запись к записи скачать торрент Coed Fever Лихорадка с совместным обучением . Будь первым!

!Обратная связь
//main.js show_panel