Статистика раздачи
Размер:  1.4 GB   |    Зарегистрирован:  1 год 1 месяц   |    .torrent скачан:  62 раза   |   

Пиры будут получены при скачивании

 

Скачать порно Sizzling Suburbia / Раскалённый пригород через торрент бесплатно :: UnionPron.org

 
 
Автор Сообщение

Sakura

avatar Sakura


Sizzling Suburbia / Раскалённый пригород

Год производства: 1985 г.
Страна: USA
Жанр: Classic, Feature
Продолжительность: 01:16:31
Язык: Английский

Режиссер: Jim Reynolds
Студия: CDI Home Video

В ролях: Traci Lords, Sheri St. Clair, Cara Lott, Marguerite Nuit, Pamela Jennings, Francois, Peter North, Starbuck

Описание: Mike''s out of the office with a client getting a big matter straightened out! Sandy can''t keep her hands off the pool boy! Karen wants a three way session to include her best friend and neighbor Vicki! Helen just got a divorce and wants comforting in the worst way! Jerry wants to dive in and he''s not thinking about the pool! Sandy takes a shower to cool off, until someone hands her the soap! Vicki''s a faithful wife, and then spots the lipstick stain on her husband''s handkerchief!

Доп. информация: IAFD

Исходник - [url=...1982147]DVD[/url] спасибо Total Nihilist

Scene Breakdowns:
Scene 1. Cara Lott, Peter North
Scene 2. Traci Lords, Peter North
Scene 3. Cara Lott, Starbuck
Scene 4. Pamela Jennings, Francois
Scene 5. Pamela Jennings, Peter North
Scene 6. Cara Lott, Sheri St. Clair, Starbuck

Качество видео: DVDRip-AVC
Формат видео: MKV
Видео: х264 | 704x536 | 23,976 кадра/сек | 2394 Кбит/сек | 0.265
Аудио: AC-3 | 48,0 КГц | 2 канала | 224 Кбит/сек
Формат : Matroska
Версия формата : Version 2
Размер файла : 1,40 Гбайт
Продолжительность : 1 ч. 16 м.
Общий поток : 2620 Кбит/сек
Дата кодирования : UTC 2016-05-11 15:55:35
Программа кодирования : mkvmerge v9.1.0 (''Little Earthquakes'') 32bit
Библиотека кодирования : libebml v1.3.3 + libmatroska v1.4.4
Обложка : Yes
Attachments : cover.jpg

Видео
Идентификатор : 1
Формат : AVC
Формат/Информация : Advanced Video Codec
Профиль формата : High@L3.1
Параметр CABAC формата : Да
Параметр ReFrames формата : 8 кадров
Идентификатор кодека : V_MPEG4/ISO/AVC
Продолжительность : 1 ч. 16 м.
Битрейт : 2394 Кбит/сек
Ширина : 704 пикселя
Высота : 536 пикселей
Соотношение сторон : 4:3
Режим частоты кадров : Постоянный
Частота кадров : 23,976 (24000/1001) кадра/сек
Цветовое пространство : YUV
Субдискретизация насыщенности : 4:2:0
Битовая глубина : 8 бит
Тип развёртки : Прогрессивная
Бит/(Пиксели*Кадры) : 0.265
Размер потока : 1,25 Гбайт (89%)
Библиотека кодирования : x264 core 148 r2692 64f4e24
Настройки программы : cabac=1 / ref=8 / deblock=1:0:0 / analyse=0x3:0x133 / me=umh / subme=9 / psy=1 / psy_rd=0.80:0.00 / mixed_ref=1 / me_range=16 / chroma_me=1 / trellis=2 / 8x8dct=1 / cqm=0 / deadzone=21,11 / fast_pskip=0 / chroma_qp_offset=-2 / threads=4 / lookahead_threads=1 / sliced_threads=0 / nr=0 / decimate=0 / interlaced=0 / bluray_compat=0 / constrained_intra=0 / bframes=4 / b_pyramid=2 / b_adapt=2 / b_bias=0 / direct=3 / weightb=1 / open_gop=0 / weightp=2 / keyint=250 / keyint_min=23 / scenecut=40 / intra_refresh=0 / rc_lookahead=60 / rc=2pass / mbtree=1 / bitrate=2394 / ratetol=1.0 / qcomp=0.70 / qpmin=0 / qpmax=69 / qpstep=4 / cplxblur=20.0 / qblur=0.5 / ip_ratio=1.40 / aq=2:1.00
Default : Да
Forced : Нет
Цветовой диапазон : Limited
Коэффициенты матрицы : BT.601

Аудио
Идентификатор : 2
Формат : AC-3
Формат/Информация : Audio Coding 3
Расширение режима : CM (complete main)
Параметр Endianness формата : Big
Идентификатор кодека : A_AC3
Продолжительность : 1 ч. 16 м.
Вид битрейта : Постоянный
Битрейт : 224 Кбит/сек
Каналы : 2 канала
Расположение каналов : Front: L R
Частота : 48,0 КГц
Частота кадров : 31,250 кадров/сек (1536 spf)
Метод сжатия : С потерями
Размер потока : 123 Мбайт (9%)
Default : Да
Forced : Нет

Меню
00:01:04.000 : :Scene 1. Cara Lott
00:11:46.000 : :Scene 2. Traci Lords
00:24:21.000 : :Scene 3. Cara Lott
00:38:40.000 : :Scene 4. Pamela Jennings
00:49:58.000 : :Scene 5. Pamela Jennings
01:00:20.000 : :Scene 6. Cara Lott, Sheri St. Clair
[url]...1980659[/url]
Трекер:  [ 17-Май-2016 01:30 ]

Размер .torrent файла 14 KB


Размер: 1.4 GB
Хэш (hash) релиза: e4b6c4567a055d717bc2182d1bef48649afa9a0c
Подписка на обновления:

Еще никто не оставлял запись к записи скачать торрент Sizzling Suburbia Раскалённый пригород . Будь первым!

!Обратная связь
//main.js show_panel