Статистика раздачи
Размер:  510 MB   |    Зарегистрирован:  1 год 6 месяцев   |    .torrent скачан:  36 раз   |   

Пиры будут получены при скачивании

 

Скачать порно Injuu Nerawareta Idol / Idol of Darkness / Идол тьмы через торрент бесплатно :: UnionPron.org

 
 
Автор Сообщение

Sakura

avatar Sakura


Injuu Nerawareta Idol
淫獣 ねらわれたアイドル
Idol of Darkness
Идол тьмы

Год выпуска: 1997
Жанр: mystery, romance, idols, demon
Серии: ep. 1 of 1
Продолжительность: 47mn 28s
Цензура: Отсутствует

Озвучка: Японская оригинальная
Субтитры: Русские [dron] внешние SRT
Субтитры: Английские внешние SRT

Студия: PinkPineapple, Studio Wood

Описание: Ikumi is an up and coming pop singer with millions of fans and a promising acting career. She should be looking at the world through rose-colored glasses, but she''s got man trouble. The love of her life just isn''t sure he can handle Ikumi''s fame and fortune. To make matters worse, while shooting on location, a jealous co-star finds a strange wooden idol in an abandoned temple, and uses it to invoke a hedeous demon to be the instrument of her revenge. Will Ikumi''s next concert be her last curtain call? She''s about to dicover that there really are fates worse than death.

anidb

Качество видео: DVDrip
Разрешение видео: 480p
Формат видео: MP4
Видео: 848-480, 16-9, 23.976 fps, AVC, 1242 kbps
Аудио: jpn, AAC, Stereo, 48.0 KHz, 256 kbps
General
Complete name : Injuu_nerawareta_idol_[6E03F0A2].mp4
Format : MPEG-4
Format profile : Base Media
Codec ID : isom
File size : 510 MiB
Duration : 47mn 28s
Overall bit rate mode : Variable
Overall bit rate : 1 501 Kbps
Encoded date : UTC 2009-06-18 10:11:01
Tagged date : UTC 2009-06-18 10:11:01

Video
ID : 1
Format : AVC
Format/Info : Advanced Video Codec
Format profile : High@L3.1
Format settings, CABAC : Yes
Format settings, ReFrames : 8 frames
Format settings, GOP : N=1
Codec ID : avc1
Codec ID/Info : Advanced Video Coding
Duration : 47mn 28s
Bit rate : 1 242 Kbps
Maximum bit rate : 4 141 Kbps
Width : 848 pixels
Height : 480 pixels
Display aspect ratio : 16:9
Frame rate mode : Constant
Frame rate : 23.976 fps
Color space : YUV
Chroma subsampling : 4:2:0
Bit depth : 8 bits
Scan type : Progressive
Bits/(Pixel*Frame) : 0.127
Stream size : 422 MiB (83%)
Writing library : x264 core 67 r1128M 682b54d
Encoding settings : cabac=1 / ref=8 / deblock=1:1:1 / analyse=0x3:0x133 / me=umh / subme=7 / psy_rd=0.6:0.0 / mixed_ref=1 / me_range=32 / chroma_me=1 / trellis=2 / 8x8dct=1 / cqm=0 / deadzone=21,11 / chroma_qp_offset=-2 / threads=3 / nr=0 / decimate=0 / mbaff=0 / bframes=16 / b_pyramid=1 / b_adapt=1 / b_bias=0 / direct=3 / wpredb=0 / keyint=250 / keyint_min=25 / scenecut=40 / rc=2pass / bitrate=1242 / ratetol=1.0 / qcomp=0.60 / qpmin=10 / qpmax=51 / qpstep=4 / cplxblur=20.0 / qblur=0.5 / ip_ratio=1.40 / pb_ratio=1.30 / aq=0
Encoded date : UTC 2009-06-18 10:11:01
Tagged date : UTC 2009-06-18 10:11:35

Audio
ID : 2
Format : AAC
Format/Info : Advanced Audio Codec
Format profile : LC
Codec ID : 40
Duration : 47mn 28s
Bit rate mode : Variable
Bit rate : 256 Kbps
Maximum bit rate : 349 Kbps
Channel(s) : 2 channels
Channel positions : Front: L R
Sampling rate : 48.0 KHz
Compression mode : Lossy
Stream size : 86.8 MiB (17%)
Encoded date : UTC 2009-06-18 10:11:33
Tagged date : UTC 2009-06-18 10:11:35
От [url=...1029548]Narrru[/url] – лучше видео, сравнение, русские субтитры.
[url=...6452186] [/url]
Трекер:  [ 16-Май-2016 02:00 ]

Размер .torrent файла 20 KB


Размер: 510 MB
Хэш (hash) релиза: cff844e0ffa328a64981fb7364fca9518f935abc
Подписка на обновления:

Еще никто не оставлял запись к записи скачать торрент Injuu Nerawareta Idol Idol of Darkness . Будь первым!

!Обратная связь
//main.js show_panel