Статистика раздачи
Размер:  696 MB   |    Зарегистрирован:  1 год 1 месяц   |    .torrent скачан:  52 раза   |   

Пиры будут получены при скачивании

 

Скачать порно Tokyo Requiem / Токийский реквием через торрент бесплатно :: UnionPron.org

 
 
Автор Сообщение

Sakura

avatar Sakura


Tokyo Requiem
東京鎮魂歌[レクイエム]
Токийский реквием

Год выпуска: 2005-2006
Жанр: tentacle, rape, group sex, yuri, futanari, large breasts
Серии: ep. 1-2 of 2
Продолжительность: 2*29mn
Цензура: Отсутствует

Озвучка: Японская оригинальная
Субтитры: Русские [SoulEater & AlU] внешние ASS
Субтитры: Английские внешние ASS
Субтитры: Корейские внешние ASS

Режиссер: Honda Kazuyuki, Kawano Hotaru
Автор оригинала: Nakamura Nishiki
Студия: Studio Jam

Описание: Золотая Конвергенция - тайная секта, похищает четырех мико, чтобы с помощью их сил пробудить древнее божество. Противостоят секте правительственные агенты, каждый из которых готов пожертвовать жизнью, чтобы защитить обычных на вид девушек, хранящих в себе огромную силу, от демонов из других миров.

anidb

Доп. информация: Хентай незавершён.

Качество видео: DVDrip [торрент иваниваныч]
Разрешение видео: 480p
Формат видео: MKV
Видео: 702-480 (ep. 1), 720-480 (ep. 2), 4-3, 23.976 fps, AVC, 1110 kbps (ep. 1), 1361 (ep. 2)
Аудио: jpn, AC-3, Stereo, 48.0 KHz, 192 kbps
General
Unique ID : 212739861374385624442995086241401826438 (0xA00C34F9ED1E7E2AB40D84790D4A6C86)
Complete name : Tokyo_requiem_01_[EA777A08].mkv
Format : Matroska
Format version : Version 2
File size : 330 MiB
Duration : 28mn 58s
Overall bit rate : 1 590 Kbps
Movie name : рип торрент иваниваныч
Encoded date : UTC 2016-05-08 12:30:05
Writing application : mkvmerge v7.5.0 (''Glass Culture'') 64bit built on Jan 4 2015 16:48:44
Writing library : libebml v1.3.1 + libmatroska v1.4.2

Video
ID : 1
Format : AVC
Format/Info : Advanced Video Codec
Format profile : High 10@L5.2
Format settings, CABAC : Yes
Format settings, ReFrames : 16 frames
Codec ID : V_MPEG4/ISO/AVC
Duration : 28mn 58s
Bit rate : 1 110 Kbps
Width : 702 pixels
Height : 480 pixels
Display aspect ratio : 4:3
Frame rate mode : Constant
Frame rate : 23.976 fps
Color space : YUV
Chroma subsampling : 4:2:0
Bit depth : 10 bits
Scan type : Progressive
Bits/(Pixel*Frame) : 0.137
Stream size : 230 MiB (70%)
Title : Tokyo requiem 01
Writing library : x264 core 146 r2538 121396c
Encoding settings : cabac=1 / ref=16 / deblock=1:-1:-1 / analyse=0x3:0x133 / me=tesa / subme=9 / psy=0 / mixed_ref=1 / me_range=32 / chroma_me=1 / trellis=0 / 8x8dct=1 / cqm=0 / deadzone=21,11 / fast_pskip=0 / chroma_qp_offset=0 / threads=12 / lookahead_threads=3 / sliced_threads=0 / nr=0 / decimate=1 / interlaced=0 / bluray_compat=0 / constrained_intra=0 / bframes=16 / b_pyramid=2 / b_adapt=2 / b_bias=0 / direct=3 / weightb=1 / open_gop=0 / weightp=2 / keyint=250 / keyint_min=23 / scenecut=40 / intra_refresh=0 / rc_lookahead=60 / rc=crf / mbtree=1 / crf=14.0 / qcomp=0.70 / qpmin=0 / qpmax=81 / qpstep=4 / ip_ratio=1.40 / aq=3:0.60
Language : Japanese
Default : Yes
Forced : No

Audio
ID : 2
Format : AC-3
Format/Info : Audio Coding 3
Mode extension : CM (complete main)
Format settings, Endianness : Big
Codec ID : A_AC3
Duration : 28mn 58s
Bit rate mode : Constant
Bit rate : 448 Kbps
Channel(s) : 2 channels
Channel positions : Front: L R
Sampling rate : 48.0 KHz
Bit depth : 16 bits
Compression mode : Lossy
Stream size : 92.9 MiB (28%)
Title : jpn
Language : Japanese
Default : Yes
Forced : No

Menu
00:00:00.000 : en:Chapter 1
00:01:29.500 : en:Chapter 2
00:06:13.500 : en:Chapter 3
00:09:18.500 : en:Chapter 4
00:13:35.500 : en:Chapter 5
00:18:30.500 : en:Chapter 6
00:20:10.500 : en:Chapter 7
00:25:40.000 : en:Chapter 8
00:27:04.500 : en:Chapter 9
General
Unique ID : 203100306007519880525936636649240529043 (0x98CBB233F6CFA94FB753ABB1B6AC0893)
Complete name : Tokyo_requiem_02_[52C7A861].mkv
Format : Matroska
Format version : Version 2
File size : 326 MiB
Duration : 28mn 43s
Overall bit rate : 1 585 Kbps
Movie name : рип торрент иваниваныч
Encoded date : UTC 2016-05-08 12:30:58
Writing application : mkvmerge v7.5.0 (''Glass Culture'') 64bit built on Jan 4 2015 16:48:44
Writing library : libebml v1.3.1 + libmatroska v1.4.2

Video
ID : 1
Format : AVC
Format/Info : Advanced Video Codec
Format profile : High 10@L5.2
Format settings, CABAC : Yes
Format settings, ReFrames : 16 frames
Codec ID : V_MPEG4/ISO/AVC
Duration : 28mn 43s
Bit rate : 1 361 Kbps
Width : 720 pixels
Height : 480 pixels
Display aspect ratio : 4:3
Frame rate mode : Constant
Frame rate : 23.976 fps
Standard : NTSC
Color space : YUV
Chroma subsampling : 4:2:0
Bit depth : 10 bits
Scan type : Progressive
Bits/(Pixel*Frame) : 0.164
Stream size : 280 MiB (86%)
Title : Tokyo requiem 02
Writing library : x264 core 146 r2538 121396c
Encoding settings : cabac=1 / ref=16 / deblock=1:-1:-1 / analyse=0x3:0x133 / me=tesa / subme=9 / psy=0 / mixed_ref=1 / me_range=32 / chroma_me=1 / trellis=0 / 8x8dct=1 / cqm=0 / deadzone=21,11 / fast_pskip=0 / chroma_qp_offset=0 / threads=12 / lookahead_threads=3 / sliced_threads=0 / nr=0 / decimate=1 / interlaced=0 / bluray_compat=0 / constrained_intra=0 / bframes=16 / b_pyramid=2 / b_adapt=2 / b_bias=0 / direct=3 / weightb=1 / open_gop=0 / weightp=2 / keyint=250 / keyint_min=23 / scenecut=40 / intra_refresh=0 / rc_lookahead=60 / rc=crf / mbtree=1 / crf=14.0 / qcomp=0.70 / qpmin=0 / qpmax=81 / qpstep=4 / ip_ratio=1.40 / aq=3:0.60
Language : Japanese
Default : Yes
Forced : No

Audio
ID : 2
Format : AC-3
Format/Info : Audio Coding 3
Mode extension : CM (complete main)
Format settings, Endianness : Big
Codec ID : A_AC3
Duration : 28mn 43s
Bit rate mode : Constant
Bit rate : 192 Kbps
Channel(s) : 2 channels
Channel positions : Front: L R
Sampling rate : 48.0 KHz
Bit depth : 16 bits
Compression mode : Lossy
Stream size : 39.4 MiB (12%)
Title : jpn
Language : Japanese
Default : Yes
Forced : No

Menu
00:00:00.000 : en:Chapter 1
00:00:22.000 : en:Chapter 2
00:02:09.500 : en:Chapter 3
00:04:42.000 : en:Chapter 4
00:08:24.500 : en:Chapter 5
00:13:10.500 : en:Chapter 6
00:17:32.500 : en:Chapter 7
00:23:31.500 : en:Chapter 8
00:26:50.500 : en:Chapter 9
От [url=...1526263]Kрыса[/url] – немного лучше качество видео, немного меньше обрезано, CFR вместо VFR, сравнение, сравнение с двд, корейские субтитры.
[url=...6452186] [/url]
Трекер:  [ 13-Май-2016 01:00 ]

Размер .torrent файла 15 KB


Размер: 696 MB
Хэш (hash) релиза: 3ff51a3304844187c45e38b9858d83815b149898
Подписка на обновления:

Еще никто не оставлял запись к записи скачать торрент Tokyo Requiem Токийский реквием . Будь первым!

!Обратная связь
//main.js show_panel