Статистика раздачи
Размер:  186 MB   |    Зарегистрирован:  10 месяцев   |    .torrent скачан:  6 раз   |   

Пиры будут получены при скачивании

 

Скачать порно Yami o Mitsumeru Hane / Feathers gazing into the darkness / Перья, смотрящие во тьму через торрент бесплатно :: UnionPron.org

 
 
Автор Сообщение

Sakura

avatar Sakura


Yami o Mitsumeru Hane
闇を見つめる羽根
Feathers gazing into the darkness
Перья, смотрящие во тьму

Год выпуска: 2003
Жанр: fantasy, erotic
Серии: ep. 1 of 1
Продолжительность: 17mn 5c
Цензура: Этти - легкая эротика

Озвучка: Японская оригинальная

Режиссер: Tsuji Naoyuki
Студия: Tsuji Naoyuki

Описание: Кристально чистая шизофрения, нарисованная простым карандашом.

anidb

Качество видео: DVDrip
Разрешение видео: 480p
Формат видео: AVI
Видео: 592-456, 4-3, 29.97 fps, XviD, 1444 kbps
Аудио: jpn, MP3, Stereo, 48.0 KHz, 64 kbps
General
Complete name : Yami_o_mitsumeru_hane_[C25124D9].avi
Format : AVI
Format/Info : Audio Video Interleave
File size : 186 MiB
Duration : 17mn 5s
Overall bit rate : 1 522 Kbps
Writing application : Lavf51.19.0
Original source form/Name : DVD_VOLUME

Video
ID : 0
Format : MPEG-4 Visual
Format profile : Simple@L3
Format settings, BVOP : No
Format settings, QPel : No
Format settings, GMC : No warppoints
Format settings, Matrix : Default (H.263)
Codec ID : XVID
Codec ID/Hint : XviD
Duration : 17mn 5s
Bit rate : 1 444 Kbps
Width : 592 pixels
Height : 456 pixels
Display aspect ratio : 1.298
Frame rate : 29.970 fps
Color space : YUV
Chroma subsampling : 4:2:0
Bit depth : 8 bits
Scan type : Progressive
Compression mode : Lossy
Bits/(Pixel*Frame) : 0.178
Stream size : 176 MiB (95%)
Writing library : XviD 1.1.2 (UTC 2006-11-01)

Audio
ID : 1
Format : MPEG Audio
Format version : Version 1
Format profile : Layer 3
Mode : Joint stereo
Mode extension : MS Stereo
Codec ID : 55
Codec ID/Hint : MP3
Duration : 17mn 4s
Bit rate mode : Constant
Bit rate : 64.0 Kbps
Channel(s) : 2 channels
Sampling rate : 48.0 KHz
Compression mode : Lossy
Stream size : 7.82 MiB (4%)
Alignment : Aligned on interleaves
Interleave, duration : 24 ms (0.72 video frame)
Interleave, preload duration : 24 ms
[url=...6452186] [/url]
Трекер:  [ 11-Май-2016 01:00 ]

Размер .torrent файла 15 KB


Размер: 186 MB
Хэш (hash) релиза: 50058fa87bfe7201555911581058ac0dccf2d893
Подписка на обновления:

Еще никто не оставлял запись к записи скачать торрент Yami o Mitsumeru Hane Feathers gazing into the darkness . Будь первым!

!Обратная связь
//main.js show_panel