Статистика раздачи
Размер:  2 GB   |    Зарегистрирован:  1 год 1 месяц   |    .torrent скачан:  5 раз   |   

Пиры будут получены при скачивании

 

Скачать порно BPS: Battle Programmer Shirase / Боевой программер Сирасэ через торрент бесплатно :: UnionPron.org

 
 
Автор Сообщение

Sakura

avatar Sakura


BPS: Battle Programmer Shirase
bpS バトルプログラマーシラセ
Боевой программер Сирасэ

Год выпуска: 2003
Жанр: ecchi, comedy, pantsu
Серии: ep. 1-15 of 15
Продолжительность: 5*28mn
Цензура: Этти - легкая эротика

Озвучка: Японская оригинальная
Субтитры: Русские внешние ASS
Субтитры: Английские внешние ASS

Режиссер: Hayashi Hiroki
Студия: AIC

Описание: В аниме, в кинематографе часто изображают идеальных представителей различных соц. групп, в Battle Programmer Shirase изображен идеальный программист. Именно так должен выглядить програмер с большим стажем, к этому должны стремится все кто этим занимается по жизни. Его отношение к жизни это не просто пофигизм, а превосходная его степень, его лень- это полная не приязнь желания делать что-либо не интересное ему. В этом аниме на мой взгляд не важен сюжет, в нем важен только главный персонаж. Рекомендую это аниме всем кто знимается программированием, но не считающих его своей работой. Начинающие смогут увидить идеал, а старшИе вдоволь посмеются, и во многом увидят себя. Еще хотелось бы чтоб это аниме посмотрели заказчики и увидили как надо обращатся с Программерами.
© MikJ, world-art

anidb

Доп. информация: 15 серий в 5 файлах. Укатайка полная. Рип хороший.

Качество видео: DVDrip
Разрешение видео: 576p
Формат видео: MKV
Видео: 768-576, 4-3, 23.976 fps, AVC, 1409-1703 kbps
Аудио: jpn, AC-3, Stereo, 48.0 KHz, 448 kbps
General
Unique ID : 199820909330398209131387469589007038408 (0x96541B76A9D5CB309F9DE033D4D3F7C8)
Complete name : BPS_-_Battle_programmer_Shirase_01_[R2DVDrip][18DE6523].mkv
Format : Matroska
Format version : Version 4 / Version 2
File size : 399 MiB
Duration : 26mn 36s
Overall bit rate : 2 099 Kbps
Encoded date : UTC 2015-10-24 14:13:34
Writing application : mkvmerge v7.7.0 (''Six Voices'') 32bit built on Feb 28 2015 23:23:00
Writing library : libebml v1.3.1 + libmatroska v1.4.2
Attachements : GRIMACEv2.ttf / Impress_BT.ttf / verdanaV2.ttf
_STATISTICS_WRITING_APP : mkvmerge v7.7.0 (''Six Voices'') 32bit built on Feb 28 2015 23:23:00
_STATISTICS_WRITING_DATE_UTC : 2015-10-24 14:13:34
_STATISTICS_TAGS : BPS DURATION NUMBER_OF_FRAMES NUMBER_OF_BYTES
DURATION : 00:26:36.416000000
NUMBER_OF_FRAMES : 49888
NUMBER_OF_BYTES : 89399296

Video
ID : 1
Format : AVC
Format/Info : Advanced Video Codec
Format profile : High@L4.1
Format settings, CABAC : Yes
Format settings, ReFrames : 4 frames
Codec ID : V_MPEG4/ISO/AVC
Duration : 26mn 36s
Bit rate : 1 609 Kbps
Width : 768 pixels
Height : 576 pixels
Display aspect ratio : 4:3
Frame rate mode : Constant
Frame rate : 23.976 fps
Color space : YUV
Chroma subsampling : 4:2:0
Bit depth : 8 bits
Scan type : Progressive
Bits/(Pixel*Frame) : 0.152
Stream size : 306 MiB (77%)
Writing library : x264 core 146 r2538 121396c
Encoding settings : opencl=1 / cabac=1 / ref=5 / deblock=1:-1:-1 / analyse=0x3:0x113 / me=umh / subme=11 / psy=1 / psy_rd=0.90:0.00 / mixed_ref=1 / me_range=32 / chroma_me=1 / trellis=2 / 8x8dct=1 / cqm=0 / deadzone=21,11 / fast_pskip=0 / chroma_qp_offset=-2 / threads=8 / lookahead_threads=1 / sliced_threads=0 / nr=0 / decimate=1 / interlaced=0 / bluray_compat=0 / constrained_intra=0 / bframes=3 / b_pyramid=1 / b_adapt=2 / b_bias=1 / direct=3 / weightb=1 / open_gop=0 / weightp=2 / keyint=240 / keyint_min=23 / scenecut=40 / intra_refresh=0 / rc_lookahead=50 / rc=crf / mbtree=1 / crf=15.0 / qcomp=0.70 / qpmin=10 / qpmax=36 / qpstep=4 / vbv_maxrate=62500 / vbv_bufsize=78125 / crf_max=0.0 / nal_hrd=none / filler=0 / ip_ratio=1.40 / aq=1:1.10
Language : Japanese
Default : Yes
Forced : No
Color range : Limited
Color primaries : BT.601 NTSC
Transfer characteristics : BT.601
Matrix coefficients : BT.601
_STATISTICS_WRITING_APP : mkvmerge v7.7.0 (''Six Voices'') 32bit built on Feb 28 2015 23:23:00
_STATISTICS_WRITING_DATE_UTC : 2015-10-24 14:13:34
_STATISTICS_TAGS : BPS DURATION NUMBER_OF_FRAMES NUMBER_OF_BYTES
DURATION : 00:26:36.637000000
NUMBER_OF_FRAMES : 38281
NUMBER_OF_BYTES : 328842405

Audio
ID : 2
Format : AC-3
Format/Info : Audio Coding 3
Mode extension : CM (complete main)
Format settings, Endianness : Big
Codec ID : A_AC3
Duration : 26mn 36s
Bit rate mode : Constant
Bit rate : 448 Kbps
Channel(s) : 2 channels
Channel positions : Front: L R
Sampling rate : 48.0 KHz
Bit depth : 16 bits
Compression mode : Lossy
Stream size : 85.3 MiB (21%)
Language : Japanese
Default : Yes
Forced : No

Menu
00:00:00.000 : :Chapter 1
00:01:15.075 : :Chapter 2
00:24:14.453 : :Chapter 3
00:25:44.753 : :Chapter 4
Трекер:  [ 06-Май-2016 03:00 ]

Размер .torrent файла 13 KB


Размер: 2 GB
Хэш (hash) релиза: a57e5d0025ba38644e785b5c67f2d2d21ce75308
Подписка на обновления:

Еще никто не оставлял запись к записи скачать торрент BPS: Battle Programmer Shirase Боевой программер Сирасэ . Будь первым!

!Обратная связь
//main.js show_panel