Статистика раздачи
Размер:  969 MB   |    Зарегистрирован:  1 год 1 месяц   |    .torrent скачан:  5 раз   |   

Пиры будут получены при скачивании

 

Скачать порно 1001 Nights / 1001 ночь Ёситаки Амано через торрент бесплатно :: UnionPron.org

 
 
Автор Сообщение

Sakura

avatar Sakura


1001 Nights
1001 ночь Ёситаки Амано

Год выпуска: 1998
Жанр: ecchi, fantasy, romance
Серии: ep. 1 of 1
Продолжительность: 23mn 43s
Цензура: Этти - легкая эротика

Озвучка: Английская оригинальная Stereo
Озвучка: Английская оригинальная 5 channels
Субтитры: Японские оригинальные встроенные отключаемые IDX+SUB
Субтитры: Русские внешние SRT
Субтитры: Французские [asf] внешние ASS
Субтитры: Испанские [FLF], [LRL] внешние ASS
Субтитры: Португальские [RevA] внешние ASS
Субтитры: Венгерские [AnimeAddicts] внешние ASS

Режиссер: Amano Yoshitaka

Описание: Описание: Очень красивая вещь. Своеобразный стиль изображения героев, иллюзия рисовки карандашами, перетекаемость одной картины в другую - всё это создает свой собственный мир, построенный на образах и восприятии. Картину дополняет музыка, благодаря которой просто не нужно слов. Всё воспринимается на чувствах, эмоциях и ощущениях. Действительно это похоже на сон, призрачный и непонятный, но в то же время необычайно прекрасный.
© oXo, world-art

anidb

Доп. информация: Не верьте анидб, японского дубляжа нет.

Качество видео: DVDrip [торрент иваниваныч]
Разрешение видео: 480p
Формат видео: MKV
Видео: 712-480, 16-9, 23.976 fps, AVC, 3744 kbps
Аудио 1: eng, AC-3, Stereo, 48.0 KHz, 384 kbps
Аудио 2: eng, AC-3, 5 channels, 48.0 KHz, 448 kbps
General
Unique ID : 243411138276205612058154897844059927669 (0xB71F47AE1A657AA398D4E1F96BD27475)
Complete name : 1001_nights_[audio_eng+sub_jpn][Galan_rus_raw][47B7B430].mkv
Format : Matroska
Format version : Version 2
File size : 792 MiB
Duration : 23mn 43s
Overall bit rate : 4 669 Kbps
Movie name : рип торрент иваниваныч
Encoded date : UTC 2016-05-05 17:37:03
Writing application : mkvmerge v7.5.0 (''Glass Culture'') 64bit built on Jan 4 2015 16:48:44
Writing library : libebml v1.3.1 + libmatroska v1.4.2

Video
ID : 1
Format : AVC
Format/Info : Advanced Video Codec
Format profile : High 10@L5.2
Format settings, CABAC : Yes
Format settings, ReFrames : 16 frames
Codec ID : V_MPEG4/ISO/AVC
Duration : 23mn 43s
Bit rate : 3 744 Kbps
Width : 712 pixels
Height : 480 pixels
Display aspect ratio : 16:9
Original display aspect ratio : 16:9
Frame rate mode : Constant
Frame rate : 23.976 fps
Color space : YUV
Chroma subsampling : 4:2:0
Bit depth : 10 bits
Scan type : Progressive
Bits/(Pixel*Frame) : 0.457
Stream size : 635 MiB (80%)
Title : 1001 nights
Writing library : x264 core 146 r2538 121396c
Encoding settings : cabac=1 / ref=16 / deblock=1:-1:-1 / analyse=0x3:0x133 / me=tesa / subme=9 / psy=0 / mixed_ref=1 / me_range=32 / chroma_me=1 / trellis=0 / 8x8dct=1 / cqm=0 / deadzone=21,11 / fast_pskip=0 / chroma_qp_offset=0 / threads=12 / lookahead_threads=3 / sliced_threads=0 / nr=0 / decimate=1 / interlaced=0 / bluray_compat=0 / constrained_intra=0 / bframes=16 / b_pyramid=2 / b_adapt=2 / b_bias=0 / direct=3 / weightb=1 / open_gop=0 / weightp=2 / keyint=250 / keyint_min=23 / scenecut=40 / intra_refresh=0 / rc_lookahead=60 / rc=crf / mbtree=1 / crf=17.0 / qcomp=0.70 / qpmin=0 / qpmax=81 / qpstep=4 / ip_ratio=1.40 / aq=3:0.60
Language : Japanese
Default : Yes
Forced : No

Audio #1
ID : 2
Format : AC-3
Format/Info : Audio Coding 3
Format profile : Dolby Digital
Mode extension : CM (complete main)
Format settings, Endianness : Big
Codec ID : A_AC3
Duration : 23mn 43s
Bit rate mode : Constant
Bit rate : 384 Kbps
Channel(s) : 2 channels
Channel positions : Front: L R
Sampling rate : 48.0 KHz
Bit depth : 16 bits
Compression mode : Lossy
Stream size : 65.1 MiB (8%)
Title : eng 2.0
Language : English
Default : Yes
Forced : No

Audio #2
ID : 3
Format : AC-3
Format/Info : Audio Coding 3
Mode extension : CM (complete main)
Format settings, Endianness : Big
Codec ID : A_AC3
Duration : 23mn 43s
Bit rate mode : Constant
Bit rate : 448 Kbps
Channel(s) : 5 channels
Channel positions : Front: L C R, Side: L R
Sampling rate : 48.0 KHz
Bit depth : 16 bits
Compression mode : Lossy
Stream size : 76.0 MiB (10%)
Title : eng 5.0
Language : English
Default : No
Forced : No

Text #1
ID : 4
Format : VobSub
Muxing mode : zlib
Codec ID : S_VOBSUB
Codec ID/Info : Picture based subtitle format used on DVDs
Title : jpn
Language : Japanese
Default : Yes
Forced : No

Text #2
ID : 5
Format : VobSub
Muxing mode : zlib
Codec ID : S_VOBSUB
Codec ID/Info : Picture based subtitle format used on DVDs
Title : jpn
Language : Japanese
Default : No
Forced : No

Menu
00:00:00.000 : en:Chapter 1
00:00:41.000 : en:Chapter 2
00:04:49.000 : en:Chapter 3
00:07:14.367 : en:Chapter 4
00:12:04.467 : en:Chapter 5
00:15:16.800 : en:Chapter 6
00:19:12.534 : en:Chapter 7
00:22:22.934 : en:Chapter 8
General
Unique ID : 179605066873343498167050470973847487868 (0x871EAD7A2CFFC61999B2207EF821C57C)
Complete name : 1001_nights_-_Bonus_[Galan_rus_raw][0911D017].mkv
Format : Matroska
Format version : Version 2
File size : 137 MiB
Duration : 6mn 47s
Overall bit rate : 2 808 Kbps
Movie name : рип торрент иваниваныч
Encoded date : UTC 2016-05-05 17:44:47
Writing application : mkvmerge v7.5.0 (''Glass Culture'') 64bit built on Jan 4 2015 16:48:44
Writing library : libebml v1.3.1 + libmatroska v1.4.2

Video
ID : 1
Format : AVC
Format/Info : Advanced Video Codec
Format profile : High 10@L5.2
Format settings, CABAC : Yes
Format settings, ReFrames : 16 frames
Codec ID : V_MPEG4/ISO/AVC
Duration : 6mn 47s
Bit rate : 2 560 Kbps
Width : 708 pixels
Height : 350 pixels
Display aspect ratio : 16:9
Original display aspect ratio : 16:9
Frame rate mode : Constant
Frame rate : 23.976 fps
Color space : YUV
Chroma subsampling : 4:2:0
Bit depth : 10 bits
Scan type : Progressive
Bits/(Pixel*Frame) : 0.431
Stream size : 124 MiB (91%)
Title : 1001 nights - Bonus
Writing library : x264 core 146 r2538 121396c
Encoding settings : cabac=1 / ref=16 / deblock=1:-1:-1 / analyse=0x3:0x133 / me=tesa / subme=9 / psy=0 / mixed_ref=1 / me_range=32 / chroma_me=1 / trellis=0 / 8x8dct=1 / cqm=0 / deadzone=21,11 / fast_pskip=0 / chroma_qp_offset=0 / threads=12 / lookahead_threads=2 / sliced_threads=0 / nr=0 / decimate=1 / interlaced=0 / bluray_compat=0 / constrained_intra=0 / bframes=16 / b_pyramid=2 / b_adapt=2 / b_bias=0 / direct=3 / weightb=1 / open_gop=0 / weightp=2 / keyint=250 / keyint_min=23 / scenecut=40 / intra_refresh=0 / rc_lookahead=60 / rc=crf / mbtree=1 / crf=14.0 / qcomp=0.70 / qpmin=0 / qpmax=81 / qpstep=4 / ip_ratio=1.40 / aq=3:0.60
Language : Japanese
Default : Yes
Forced : No

Audio
ID : 2
Format : AC-3
Format/Info : Audio Coding 3
Mode extension : CM (complete main)
Format settings, Endianness : Big
Codec ID : A_AC3
Duration : 6mn 47s
Bit rate mode : Constant
Bit rate : 192 Kbps
Channel(s) : 2 channels
Channel positions : Front: L R
Sampling rate : 48.0 KHz
Bit depth : 16 bits
Compression mode : Lossy
Stream size : 9.34 MiB (7%)
Title : jpn
Language : Japanese
Default : Yes
Forced : No
General
Unique ID : 225637358031252897387830849432292748265 (0xA9C02CA821A2971B8DD224E14870EBE9)
Complete name : 1001_nights_-_Bonus_live_[Galan_rus_raw][86684F46].mkv
Format : Matroska
Format version : Version 2
File size : 39.9 MiB
Duration : 6mn 29s
Overall bit rate : 859 Kbps
Movie name : рип торрент иваниваныч
Encoded date : UTC 2016-05-05 17:42:11
Writing application : mkvmerge v7.5.0 (''Glass Culture'') 64bit built on Jan 4 2015 16:48:44
Writing library : libebml v1.3.1 + libmatroska v1.4.2

Video
ID : 1
Format : AVC
Format/Info : Advanced Video Codec
Format profile : High 10@L5.2
Format settings, CABAC : Yes
Format settings, ReFrames : 8 frames
Codec ID : V_MPEG4/ISO/AVC
Duration : 6mn 29s
Bit rate : 650 Kbps
Width : 704 pixels
Height : 480 pixels
Display aspect ratio : 4:3
Frame rate mode : Constant
Frame rate : 59.880 fps
Original frame rate : 59.940 fps
Standard : NTSC
Color space : YUV
Chroma subsampling : 4:2:0
Bit depth : 10 bits
Scan type : Progressive
Bits/(Pixel*Frame) : 0.032
Stream size : 30.2 MiB (76%)
Title : 1001 nights - Bonus live
Writing library : x264 core 146 r2538 121396c
Encoding settings : cabac=1 / ref=8 / deblock=1:-1:-1 / analyse=0x3:0x133 / me=umh / subme=9 / psy=0 / mixed_ref=1 / me_range=24 / chroma_me=1 / trellis=0 / 8x8dct=1 / cqm=0 / deadzone=21,11 / fast_pskip=1 / chroma_qp_offset=0 / threads=12 / lookahead_threads=1 / sliced_threads=0 / nr=0 / decimate=1 / interlaced=0 / bluray_compat=0 / constrained_intra=0 / bframes=3 / b_pyramid=2 / b_adapt=2 / b_bias=0 / direct=3 / weightb=1 / open_gop=0 / weightp=2 / keyint=250 / keyint_min=25 / scenecut=40 / intra_refresh=0 / rc_lookahead=60 / rc=crf / mbtree=1 / crf=21.0 / qcomp=0.60 / qpmin=0 / qpmax=81 / qpstep=4 / ip_ratio=1.40 / aq=3:1.00
Language : Japanese
Default : Yes
Forced : No

Audio
ID : 2
Format : AC-3
Format/Info : Audio Coding 3
Mode extension : CM (complete main)
Format settings, Endianness : Big
Codec ID : A_AC3
Duration : 6mn 29s
Bit rate mode : Constant
Bit rate : 192 Kbps
Channel(s) : 2 channels
Channel positions : Front: L R
Sampling rate : 48.0 KHz
Bit depth : 16 bits
Compression mode : Lossy
Stream size : 8.92 MiB (22%)
Title : jpn
Language : Japanese
Default : Yes
Forced : No
[url=...6452186] [/url]
Трекер:  [ 06-Май-2016 01:30 ]

Размер .torrent файла 20 KB


Размер: 969 MB
Хэш (hash) релиза: eaad9112bcb65d308976352ca19c895bbfa3c8fb
Подписка на обновления:

Еще никто не оставлял запись к записи скачать торрент 1001 Nights 1001 ночь Ёситаки Амано . Будь первым!

!Обратная связь
//main.js show_panel