Статистика раздачи
Размер:  534 MB   |    Зарегистрирован:  1 год 1 месяц   |    .torrent скачан:  55 раз   |   

Пиры будут получены при скачивании

 

Скачать порно Kedamono-tachi no Sumu Ie de / Жизнь в семье монстров через торрент бесплатно :: UnionPron.org

 
 
Автор Сообщение

Sakura

avatar Sakura


ケダモノ[家族]たちの住む家で
Kedamono-tachi no Sumu Ie de
Жизнь в семье монстров


Год производства: 2015 г.
Жанр: drama, NTR, rape, old man, big tits, oral sex, anal sex, creampie, toys
Серии: ep. 1-2 of 2
Продолжительность: 2*27 min
Цензура: Есть

Озвучка: Японская Оригинальная
Субтитры: Английские [SubDESU-H] [HH] [EROBEAT-LQ] (ep. 1) внешние ASS
Субтитры: Китайские [Maho.sub] [Okazu.Sub] внешние ASS
Субтитры: Русские [Terry van Gread] (ep. 1), [Parsa320] (ep. 2) внешние ASS

Режиссер: Murakami Teruaki
Студия: Mediabank, Gold Bear, Seven

Описание: Arata Asaoka lives with his despicable, chauvinist father and older brother. A house of three men. Arata was an illegitimate child. Bearing only a tenuous blood relation to the man who bastarded him into the world, he was treated like a second-rate human. With nowhere else to go, Arata suffered the cruelty of his father and brother for years. For years, he forced a smile and pretended happiness for the sake of strangers...
One day he met the girl who gave him hope. Her name was Koharu Hinomoto.
She was a ray of sunshine. Being with Koharu made Arata feel good, and he fell deep in love. He began to believe that his life could be better. Arata decided he would move out and live with her. Even without money, they could make it work. Anything was better than how he lived right now. Arata knew in his heart that he could make a warm, loving family with Koharu.
If he could just move out... before his despicable family ruins everything.
(Source: dlsite)

Перевод:
Арата Асаока живет со своим презренным отцом-шовинистом и старшим братом. Семья из трех мужчин. Арата - незаконнорожденный ребенок. Едва уловимое кровное родство с тем, из-за кого его считают ублюдком [в первоначальном смысле слова] привело к тому, что с ним бходились, как с человеком второго сорта. Так как больше ему было некуда податься, Арата был вынужден годами страдать из-за жестокости отца и брата. Годами он носил вымученную улыбку и притворялся счастливым во благо незнакомцев...
Однажды он встретил девушку, давшую ему надежду. Ее звали Кохару Хиномото. Она стала для него лучом света. Рядом с Кохару Арата был счастлив, он по уши влюбился. Он начал верить, что жизнь может измениться к лучшему. Арата решил, что съедет и будет жить с ней. Даже без денег им бы удалось справиться. Все было бы лучше, чем продолжать жить, как он жил сейчас. Арата знал, что вместе с Кохару смог бы создать теплую, любящую семью. Если бы только он смог просто съехать... до того, как его презренная семья всё разрушит.
© Vovan15

anidb

Качество видео: BDrip [MahoXOkazu]
Формат видео: mp4
Видео: 1280-720, 16-9, 23.976 fps, AVC, 1 284 Kbps (ep. 1), 1 237 Kbps (ep. 2)
Аудио: AAC, Stereo, 48.0 KHz, 110 Kbps (ep. 1), 75.7 Kbps (ep. 2)
General
Complete name : Kedamono-tachi_no_sumu_ie_de_01_[23.976][MahoXOkazu][4CE254D9].mp4
Format : MPEG-4
Format profile : Base Media
Codec ID : isom
File size : 270 MiB
Duration : 26mn 55s
Overall bit rate mode : Variable
Overall bit rate : 1 400 Kbps
Encoded date : UTC 1970-01-01 00:00:00
Tagged date : UTC 1970-01-01 00:00:00
Writing application : Lavf52.87.1

Video
ID : 1
Format : AVC
Format/Info : Advanced Video Codec
Format profile : High 10@L5.1
Format settings, CABAC : Yes
Format settings, ReFrames : 8 frames
Codec ID : avc1
Codec ID/Info : Advanced Video Coding
Duration : 26mn 55s
Bit rate : 1 284 Kbps
Width : 1 280 pixels
Height : 720 pixels
Display aspect ratio : 16:9
Frame rate mode : Constant
Frame rate : 23.976 fps
Color space : YUV
Chroma subsampling : 4:2:0
Bit depth : 10 bits
Scan type : Progressive
Bits/(Pixel*Frame) : 0.058
Stream size : 247 MiB (92%)
Writing library : x264 core 142 r2431+42 c69a006 tMod [10-bit@all X86_64]
Encoding settings : cabac=1 / ref=8 / deblock=1:0:0 / analyse=0x3:0x133 / me=umh / subme=10 / psy=1 / fade_compensate=0.00 / psy_rd=0.30:0.00 / mixed_ref=1 / me_range=32 / chroma_me=1 / trellis=2 / 8x8dct=1 / cqm=0 / deadzone=21,11 / fast_pskip=1 / chroma_qp_offset=-2 / threads=12 / lookahead_threads=3 / sliced_threads=0 / nr=0 / decimate=1 / interlaced=0 / bluray_compat=0 / constrained_intra=0 / fgo=0 / bframes=10 / b_pyramid=2 / b_adapt=2 / b_bias=0 / direct=3 / weightb=1 / open_gop=0 / weightp=2 / keyint=240 / keyint_min=30 / scenecut=40 / intra_refresh=0 / rc_lookahead=240 / rc=crf / mbtree=1 / crf=19.4000 / qcomp=0.60 / qpmin=0:0:0 / qpmax=51:51:51 / qpstep=4 / ip_ratio=1.40 / aq=1:0.60 / aq-sensitivity=10.00 / aq-factor=1.00:1.00:1.00 / aq2=0 / aq3=0
Encoded date : UTC 1970-01-01 00:00:00
Tagged date : UTC 1970-01-01 00:00:00

Audio
ID : 2
Format : AAC
Format/Info : Advanced Audio Codec
Format profile : LC
Codec ID : 40
Duration : 26mn 55s
Bit rate mode : Variable
Bit rate : 110 Kbps
Channel(s) : 2 channels
Channel positions : Front: L R
Sampling rate : 48.0 KHz
Compression mode : Lossy
Stream size : 21.1 MiB (8%)
Encoded date : UTC 1970-01-01 00:00:00
Tagged date : UTC 1970-01-01 00:00:00

Menu
General
Complete name : Kedamono-tachi_no_sumu_ie_de_02_[23.976][MahoXOkazu][0184B11B].mp4
Format : MPEG-4
Format profile : Base Media
Codec ID : isom
File size : 264 MiB
Duration : 28mn 1s
Overall bit rate mode : Variable
Overall bit rate : 1 318 Kbps
Encoded date : UTC 1970-01-01 00:00:00
Tagged date : UTC 1970-01-01 00:00:00
Writing application : Lavf52.87.1

Video
ID : 1
Format : AVC
Format/Info : Advanced Video Codec
Format profile : High 10@L5.1
Format settings, CABAC : Yes
Format settings, ReFrames : 5 frames
Codec ID : avc1
Codec ID/Info : Advanced Video Coding
Duration : 28mn 1s
Bit rate : 1 237 Kbps
Width : 1 280 pixels
Height : 720 pixels
Display aspect ratio : 16:9
Frame rate mode : Constant
Frame rate : 23.976 fps
Color space : YUV
Chroma subsampling : 4:2:0
Bit depth : 10 bits
Scan type : Progressive
Bits/(Pixel*Frame) : 0.056
Stream size : 248 MiB (94%)
Writing library : x264 core 142 r2431+42 c69a006 tMod [10-bit@all X86_64]
Encoding settings : cabac=1 / ref=5 / deblock=1:0:0 / analyse=0x3:0x133 / me=umh / subme=10 / psy=1 / fade_compensate=0.00 / psy_rd=0.30:0.00 / mixed_ref=1 / me_range=32 / chroma_me=1 / trellis=2 / 8x8dct=1 / cqm=0 / deadzone=21,11 / fast_pskip=1 / chroma_qp_offset=-2 / threads=4 / lookahead_threads=1 / sliced_threads=0 / nr=0 / decimate=1 / interlaced=0 / bluray_compat=0 / constrained_intra=0 / fgo=0 / bframes=6 / b_pyramid=2 / b_adapt=2 / b_bias=0 / direct=3 / weightb=1 / open_gop=0 / weightp=2 / keyint=240 / keyint_min=30 / scenecut=40 / intra_refresh=0 / rc_lookahead=240 / rc=crf / mbtree=1 / crf=20.4000 / qcomp=0.60 / qpmin=0:0:0 / qpmax=51:51:51 / qpstep=4 / ip_ratio=1.40 / aq=1:0.60 / aq-sensitivity=10.00 / aq-factor=1.00:1.00:1.00 / aq2=0 / aq3=0
Encoded date : UTC 1970-01-01 00:00:00
Tagged date : UTC 1970-01-01 00:00:00

Audio
ID : 2
Format : AAC
Format/Info : Advanced Audio Codec
Format profile : LC
Codec ID : 40
Duration : 28mn 1s
Bit rate mode : Variable
Bit rate : 75.7 Kbps
Channel(s) : 2 channels
Channel positions : Front: L R
Sampling rate : 48.0 KHz
Compression mode : Lossy
Stream size : 15.2 MiB (6%)
Encoded date : UTC 1970-01-01 00:00:00
Tagged date : UTC 1970-01-01 00:00:00

Menu
От [url=...1993087]vattok[/url] – там DVDrip, здесь BDrip.
От [url=...2126892]Vovan15[/url] – там апскейл с хардсабом, здесь равка.
Трекер:  [ 03-Май-2016 01:00 ]

Размер .torrent файла 12 KB


Размер: 534 MB
Хэш (hash) релиза: 024ad5bb1f0d2ed924be45e53a8a8ca419a81dd1
Подписка на обновления:

Торренты, похожие на Kedamono-tachi no Sumu Ie de Жизнь в семье монстров скачать торрент

Форум Название Автор Размер S L Добавлен
Хентай: основной подраздел / Hentai: main subsection ·· Kedamono-tachi no Sumu Ie de / Жизнь в семье монстров (Teruaki Murakami, Seven, Gold Bear) (ep. 1) [cen] [2015 г. Drama, NTR, Rape, Old man, Big tits, Oral sex, Anal sex, Creampie, Toys, DVDRip] [jap / eng] Sakura 339859726324 MB 0 0 1431694914

17:01

15-Май-15

Еще никто не оставлял запись к записи скачать торрент Kedamono-tachi no Sumu Ie de Жизнь в семье монстров . Будь первым!

!Обратная связь
//main.js show_panel