Статистика раздачи
Размер:  2 GB   |    Зарегистрирован:  8 месяцев   |    .torrent скачан:  51 раз   |   

Пиры будут получены при скачивании

 

Скачать порно KissXSis / Kiss x Sis / Поцелуй сестёр OVA через торрент бесплатно :: UnionPron.org

 
 
Автор Сообщение

Sakura

avatar Sakura



キスxシス | KissXSis | Kiss x Sis | Поцелуй сестёр OVA
Год выпуска: 2008-2015
Страна: Япония
Жанр: comedy, incest, romance
Продолжительность: 12 эп. по 25 мин.
Субтитры: Отсутствуют
Цензура: ecchi
Режиссёр: Nawa Munenori
Студия: Feel
Описание:
16-летний Кэйта Суминоэ с детства живёт с двумя старшими сёстрами: близняшками Ако и Рико. Вся проблема в том, что родичи они сводные, по крови не связанные, и со временем сестринские чувства Ако и Рико к милому Кэйте претерпели э-э… возрастную эволюцию. Более того, собственные отец и мать активно поощряют это стремление и настаивают, чтобы Кэйта тщательно «изучил вопрос», прежде чем сделать окончательный выбор. Разумеется, весёлые сестрёнки только «за» и со своей стороны готовы всячески облегчить и оптимизировать процесс. Вот и пойми – то ли завидовать парню, то ли сочувствовать?

До поры до времени Кэйта спасался от близняшек в средней школе, разряжая напряжение на тренировках по лёгкой атлетике. Но вот пришла пора идти в старшую, и, конечно же, выбор родителей пал на школу Гакусю, которую уже посещают старшие сёстры. Парень понял, что возражать бесполезно и принялся за подготовку к вступительным экзаменам и укрепление духа. Хотя крепись, не крепись, а мудрые не зря говорят, что капля камень точит, а уж две сестры – тем более! © Hollow, World Art
Информационные ссылки: AniDB || MAL || World Art || АниМаг
Исходник: DVD-5
Видео: MPEG2 | NTSC | 16x9 | 720x480 | 9800 Kbps
Аудио JAP: AC-3 | 48000Hz | 224 Kbps | 2ch
General
Complete name : L:\VIDEO_TS\VTS_01_1.VOB
Format : MPEG-PS
File size : 1 024 MiB
Duration : 14mn 52s
Overall bit rate mode : Variable
Overall bit rate : 9 616 Kbps

Video
ID : 224 (0xE0)
Format : MPEG Video
Format version : Version 2
Format profile : Main@Main
Format settings, BVOP : Yes
Format settings, Matrix : Custom
Duration : 14mn 52s
Bit rate mode : Variable
Bit rate : 9 201 Kbps
Maximum bit rate : 9 800 Kbps
Width : 720 pixels
Height : 480 pixels
Display aspect ratio : 16:9
Frame rate : 29.970 fps
Standard : NTSC
Color space : YUV
Chroma subsampling : 4:2:0
Bit depth : 8 bits
Scan type : Interlaced
Scan order : Top Field First
Compression mode : Lossy
Bits/(Pixel*Frame) : 0.888
Stream size : 979 MiB (96%)

Audio
ID : 189 (0xBD)-128 (0x80)
Format : AC-3
Format/Info : Audio Coding 3
Mode extension : CM (complete main)
Muxing mode : DVD-Video
Duration : 14mn 52s
Bit rate mode : Constant
Bit rate : 224 Kbps
Channel(s) : 2 channels
Channel positions : Front: L R
Sampling rate : 48.0 KHz
Bit depth : 16 bits
Compression mode : Lossy
Stream size : 23.8 MiB (2%)
Исходник: DVD-5
Видео: MPEG2 | NTSC | 16x9 | 720x480 | 9800 Kbps
Аудио JAP: AC-3 | 48000Hz | 224 Kbps | 2ch
General
Complete name : L:\VIDEO_TS\VTS_01_1.VOB
Format : MPEG-PS
File size : 1 024 MiB
Duration : 14mn 55s
Overall bit rate mode : Variable
Overall bit rate : 9 586 Kbps

Video
ID : 224 (0xE0)
Format : MPEG Video
Format version : Version 2
Format profile : Main@Main
Format settings, BVOP : Yes
Format settings, Matrix : Custom
Duration : 14mn 55s
Bit rate mode : Variable
Bit rate : 9 171 Kbps
Maximum bit rate : 9 800 Kbps
Width : 720 pixels
Height : 480 pixels
Display aspect ratio : 16:9
Frame rate : 29.970 fps
Standard : NTSC
Color space : YUV
Chroma subsampling : 4:2:0
Bit depth : 8 bits
Scan type : Interlaced
Scan order : Top Field First
Compression mode : Lossy
Bits/(Pixel*Frame) : 0.885
Stream size : 979 MiB (96%)

Audio
ID : 189 (0xBD)-128 (0x80)
Format : AC-3
Format/Info : Audio Coding 3
Mode extension : CM (complete main)
Muxing mode : DVD-Video
Duration : 14mn 55s
Bit rate mode : Constant
Bit rate : 224 Kbps
Channel(s) : 2 channels
Channel positions : Front: L R
Sampling rate : 48.0 KHz
Bit depth : 16 bits
Compression mode : Lossy
Stream size : 23.9 MiB (2%)
Исходник: DVD-5
Видео: MPEG2 | NTSC | 16x9 | 720x480 | 9800 Kbps
Аудио JAP: AC-3 | 48000Hz | 224 Kbps | 2ch
General
Complete name : L:\VIDEO_TS\VTS_01_1.VOB
Format : MPEG-PS
File size : 1 024 MiB
Duration : 15mn 1s
Overall bit rate mode : Variable
Overall bit rate : 9 524 Kbps

Video
ID : 224 (0xE0)
Format : MPEG Video
Format version : Version 2
Format profile : Main@Main
Format settings, BVOP : Yes
Format settings, Matrix : Custom
Duration : 15mn 1s
Bit rate mode : Variable
Bit rate : 9 110 Kbps
Maximum bit rate : 9 800 Kbps
Width : 720 pixels
Height : 480 pixels
Display aspect ratio : 16:9
Frame rate : 29.970 fps
Standard : NTSC
Color space : YUV
Chroma subsampling : 4:2:0
Bit depth : 8 bits
Scan type : Interlaced
Scan order : Top Field First
Compression mode : Lossy
Bits/(Pixel*Frame) : 0.880
Stream size : 979 MiB (96%)

Audio
ID : 189 (0xBD)-128 (0x80)
Format : AC-3
Format/Info : Audio Coding 3
Mode extension : CM (complete main)
Muxing mode : DVD-Video
Duration : 15mn 1s
Bit rate mode : Constant
Bit rate : 224 Kbps
Channel(s) : 2 channels
Channel positions : Front: L R
Sampling rate : 48.0 KHz
Bit depth : 16 bits
Compression mode : Lossy
Stream size : 24.1 MiB (2%)
Исходник: DVD-5
Видео: MPEG2 | NTSC | 16x9 | 720x480 | 9800 Kbps
Аудио JAP: AC-3 | 48000Hz | 224 Kbps | 2ch
General
Complete name : L:\VIDEO_TS\VTS_01_1.VOB
Format : MPEG-PS
File size : 1 024 MiB
Duration : 4mn 41s
Overall bit rate mode : Variable
Overall bit rate : 30.5 Mbps

Video
ID : 224 (0xE0)
Format : MPEG Video
Format version : Version 2
Format profile : Main@Main
Format settings, BVOP : Yes
Format settings, Matrix : Custom
Duration : 4mn 41s
Bit rate mode : Variable
Bit rate : 29.6 Mbps
Maximum bit rate : 9 800 Kbps
Width : 720 pixels
Height : 480 pixels
Display aspect ratio : 16:9
Frame rate : 23.976 fps
Standard : NTSC
Color space : YUV
Chroma subsampling : 4:2:0
Bit depth : 8 bits
Scan type : Progressive
Scan order : 2:3 Pulldown
Compression mode : Lossy
Bits/(Pixel*Frame) : 3.576
Stream size : 996 MiB (97%)

Audio
ID : 189 (0xBD)-128 (0x80)
Format : AC-3
Format/Info : Audio Coding 3
Mode extension : CM (complete main)
Muxing mode : DVD-Video
Duration : 4mn 41s
Bit rate mode : Constant
Bit rate : 224 Kbps
Channel(s) : 2 channels
Channel positions : Front: L R
Sampling rate : 48.0 KHz
Bit depth : 16 bits
Compression mode : Lossy
Stream size : 7.53 MiB (1%)
[URL=http://fastpic.ru/view/55/2014/0427/bd03982fcb699b1ef8b75434bc276776.jpg.html][IMG]http://i55.fastpic.ru/thumb
Трекер:  [ 01-Май-2016 15:00 ]

Размер .torrent файла 112 KB


Размер: 2 GB
Хэш (hash) релиза: 881019c856824c15ad67a92afae06f868da1b0e4
Подписка на обновления:

Еще никто не оставлял запись к записи скачать торрент KissXSis Kiss x Sis . Будь первым!

!Обратная связь
//main.js show_panel