Статистика раздачи
Размер:  715 MB   |    Зарегистрирован:  1 год 2 месяца   |    .torrent скачан:  4 раза   |   

Пиры будут получены при скачивании

 

Скачать порно Sanctuary / Святилище через торрент бесплатно :: UnionPron.org

 
 
Автор Сообщение

Sakura

avatar Sakura


Sanctuary
サンクチュアリ
Святилище

Год выпуска: 1996
Жанр: ecchi, mafia, violence
Серии: ep. 1 of 1
Продолжительность: 1h 11mn
Цензура: Этти - легкая эротика

Озвучка: Японская оригинальная
Субтитры: Русские [Nachtwandler & Eilearan & Evafan], [Бозон Хиггса] внешние ASS
Субтитры: Английские [Orphan] встроенные отключаемые ASS
Субтитры: Португальские [Ripando Fansub] внешние ASS

Режиссер: Watanabe Takashi
Автор оригинала: Fumimura Shou
Студия: Pastel, Tokyo Kids

Описание:
Мы хотим видеть дальше, чем окна дома напротив,
Мы хотим жить, мы живучи, как кошки...

Когда находишь такую редкую вещь, хочется взять её на ладошку, тщательно сдуть всякую сопутствующую шелуху и налипший мусор, и бережно положить на видное место в своей коллекции. Потому что, скажем прямо: полно всякого барахла для детей среднего школьного возраста, а вот чего-то более или менее серьёзного - раз-два и обчёлся.

Часто ли нам попадаются нормальные, добротные гангстерские саги и политические детективы? Увы, не знаю, кому как, а мне - очень нечасто. Поэтому стоит познакомиться поближе с этой историей двух друзей, решивших бросить вызов традициям наследования власти в современном японском обществе. Ведь это, знаете ли, ужасно увлекательно - наблюдать за процессом сращивания политики и криминала, рассматривать скрытые механизмы принятия решений, да и вообще вспомнить, как устроен мир, в котором мы живём.

С одной стороны, жаль, что это - всего лишь полнометражный мультик, а не целый сериал, а с другой стороны это даже и хорошо. Экранизации двух первых томов вполне достаточно, чтобы появился интерес вдумчиво и неторопливо прочитать мангу целиком. И, скажем честно - в кои-то веки оно того стоит, ибо дальше там будет мно-о-ого всего...
© Murlakatam, world-art

anidb

Доп. информация: Перевод Бозона Хиггса мне понравился больше, я даже ему правки отсылал.

Качество видео: LDrip [Orphan]
Разрешение видео: 480p
Формат видео: MKV
Видео: 640-480, 4-3, 23.976 fps, AVC, 1200 kbps
Аудио: jpn, MP3, Stereo, 48.0 KHz, 192 kbps
General
Unique ID : 176812004843581042849661538414047434508 (0x8504C0E31E1A4362A58DE432C476970C)
Complete name : Sanctuary_[Orphan][LDrip][65F60FF7].mkv
Format : Matroska
Format version : Version 4 / Version 2
File size : 711 MiB
Duration : 1h 11mn
Overall bit rate : 1 397 Kbps
Movie name : [Orphan] Sanctuary
Encoded date : UTC 2015-12-17 18:08:33
Writing application : mkvmerge v7.8.0 (''River Man'') 32bit built on Mar 27 2015 16:18:02
Writing library : libebml v1.3.1 + libmatroska v1.4.2
Attachements : ALB____.TTF / A-OTF-ShinMGoPro-Medium(c)_0.ttf / ARTIFICESSK.TTF / FOT Rodin Pro EB_1.ttf / FOT Rodin Pro UB.ttf / FOT-KafuNagomiStd-B(c).ttf / FrutigerLTStd-Bold.otf / FrutigerLTStd-BoldItalic.otf / KozMinPr6N-H.ttf / KozMinPro-Bold.ttf / segoepr.ttf / ArnovaITC TT.ttf

Video
ID : 1
Format : AVC
Format/Info : Advanced Video Codec
Format profile : High@L3.2
Format settings, CABAC : Yes
Format settings, ReFrames : 16 frames
Codec ID : V_MPEG4/ISO/AVC
Duration : 1h 11mn
Bit rate : 1 200 Kbps
Width : 640 pixels
Height : 480 pixels
Display aspect ratio : 4:3
Frame rate mode : Constant
Frame rate : 23.976 fps
Color space : YUV
Chroma subsampling : 4:2:0
Bit depth : 8 bits
Scan type : Progressive
Bits/(Pixel*Frame) : 0.163
Stream size : 599 MiB (84%)
Title : Video
Writing library : x264 core 146 r2538bm 121396c
Encoding settings : cabac=1 / ref=16 / deblock=1:1:1 / analyse=0x3:0x133 / me=tesa / subme=11 / psy=1 / psy_rd=0.40:0.00 / mixed_ref=1 / me_range=24 / chroma_me=1 / trellis=2 / 8x8dct=1 / cqm=0 / deadzone=21,11 / fast_pskip=0 / chroma_qp_offset=-2 / threads=18 / lookahead_threads=3 / sliced_threads=0 / nr=0 / decimate=1 / interlaced=0 / bluray_compat=0 / constrained_intra=0 / bframes=16 / b_pyramid=2 / b_adapt=2 / b_bias=0 / direct=3 / weightb=1 / open_gop=0 / weightp=2 / keyint=250 / keyint_min=23 / scenecut=40 / intra_refresh=0 / rc_lookahead=60 / rc=2pass / mbtree=1 / bitrate=1200 / ratetol=1.0 / qcomp=0.60 / qpmin=0 / qpmax=69 / qpstep=4 / cplxblur=20.0 / qblur=0.5 / ip_ratio=1.40 / aq=1:0.60
Default : Yes
Forced : No

Audio
ID : 2
Format : MPEG Audio
Format version : Version 1
Format profile : Layer 3
Mode : Joint stereo
Mode extension : MS Stereo
Codec ID : A_MPEG/L3
Codec ID/Hint : MP3
Duration : 1h 11mn
Bit rate mode : Constant
Bit rate : 192 Kbps
Channel(s) : 2 channels
Sampling rate : 48.0 KHz
Compression mode : Lossy
Stream size : 97.8 MiB (14%)
Title : Japanese audio
Language : Japanese
Default : Yes
Forced : No

Text
ID : 3
Format : ASS
Codec ID : S_TEXT/ASS
Codec ID/Info : Advanced Sub Station Alpha
Compression mode : Lossless
Title : English styled subtitles
Language : English
Default : Yes
Forced : No

Menu
00:00:00.000 : Prologue
00:05:44.360 : Part 1
00:33:07.790 : Part 2
01:01:19.020 : Ending Credits
01:05:37.820 : Illustration Gallery
01:09:02.990 : Promotional Video
Трекер:  [ 24-Апр-2016 01:00 ]

Размер .torrent файла 15 KB


Размер: 715 MB
Хэш (hash) релиза: cc3757909a528aaa8153651b9ca7d07bf04b89ab
Подписка на обновления:

Еще никто не оставлял запись к записи скачать торрент Sanctuary Святилище . Будь первым!

!Обратная связь
//main.js show_panel