Статистика раздачи
Размер:  1.35 GB   |    Зарегистрирован:  1 год 4 месяца   |    .torrent скачан:  41 раз   |   

Пиры будут получены при скачивании

 

Скачать порно Venere in Pelliccia / Венера в мехах через торрент бесплатно :: UnionPron.org

 
 
Автор Сообщение

Sakura

avatar Sakura


Venere in Pelliccia | Венера в мехах
[url=...1287695] [/url]
Год производства: 2003 г.
Страна: Италия | Italy
Жанр: Feature
Продолжительность: 02:02:57
Язык: Итальянский | Italian

Режиссер: Marzio Tangeri
Студия: ATV Entertainment

В ролях:
[url=...1937846]Daniela Schiffer (as Dana)[/url]
Elli (as Ellen)
[url=...1713666]Krystal de Boor[/url]
[url=...1287695]Laura Angel[/url]
Mandy Mistery (as Mandi Mister)
Milena Busi
Zora

Andrea Monti
Denis Marti
Franco Trentalance
Luca Pisano

Описание: Фильм рассказывает о измене и предательстве. Сладострастные и распутные женщины, соблазнительные тела и возбуждающие взгляды... Марк женат на Ванде - он критик искусства, а она богатая флорентийская графиня... Фильм с интригой... Не пропустите! Фильм с Лаурой Энжел!

Scene Breakdowns:
Scene 1. Milena Busi, Luca Pisano
Scene 2. [url=...1937846]Daniella Schiffer[/url], [url=...1287695]Laura Angel[/url], Denis Marti, Franco Trentalance
Scene 3. Elli, Franco Trentalance
Scene 4. [url=...1713666]Krystal De Boor[/url], Franco Trentalance
Scene 5. [url=...1287695]Laura Angel[/url], Milena Busi
Scene 6. Mandy Mistery, Andrea Monti, Franco Trentalance
Scene 7. [url=...1287695]Laura Angel[/url], Franco Trentalance
General
Format : AVI
Format/Info : Audio Video Interleave
File size : 1.35 GiB
Duration : 2h 2mn
Overall bit rate : 1 566 Kbps
Video
Format : MPEG-4 Visual
Format settings, BVOP : No
Format settings, QPel : No
Format settings, GMC : No warppoints
Format settings, Matrix : Default (H.263)
Codec ID : DX50
Codec ID/Hint : DivX 5
Duration : 2h 2mn
Bit rate : 1 425 Kbps
Width : 640 pixels
Height : 464 pixels
Display aspect ratio : 1.379
Frame rate : 25.000 fps
Resolution : 24 bits
Colorimetry : 4:2:0
Scan type : Progressive
Bits/(Pixel*Frame) : 0.192
Stream size : 1.22 GiB (91%)
Title : DVD2VIDEO
Writing library : DivX 5.2.0 (UTC 2004-07-15)
Audio
Format : MPEG Audio
Format version : Version 1
Format profile : Layer 3
Codec ID : 55
Codec ID/Hint : MP3
Duration : 2h 2mn
Bit rate mode : Constant
Bit rate : 128 Kbps
Channel(s) : 2 channels
Sampling rate : 48.0 KHz
Resolution : 16 bits
Stream size : 113 MiB (8%)
Alignment : Split accross interleaves
Interleave, duration : 24 ms (0.60 video frame)
Interleave, preload duration : 67 ms
Title : DVD2AUDIO00
Качество видео: DVDRip
Формат видео: AVI
Видео: MPEG4, DivX 5, 640x464 (1.379), 25.000 fps, 1 425 Kbps (0.192 bit/pixel)
Аудио: MP3, 48.0 KHz, 2 ch, 128 Kbps, CBR
[url=...380661]Venere in Pelliccia (неполная версия записи со спутника)[/url]
Трекер:  [ 19-Апр-2016 12:30 ]

Размер .torrent файла 14 KB


Размер: 1.35 GB
Хэш (hash) релиза: 6b8807e5ebaba425b933b77eacaf4ea046d31f62
Подписка на обновления:

Еще никто не оставлял запись к записи скачать торрент Venere in Pelliccia Венера в мехах . Будь первым!

!Обратная связь
//main.js show_panel