Статистика раздачи
Размер:  2 GB   |    Зарегистрирован:  1 год 2 месяца   |    .torrent скачан:  18 раз   |   

Пиры будут получены при скачивании

 

Скачать порно Buttobi!! CPU / I Dream of Mimi / Я мечтаю о Мими через торрент бесплатно :: UnionPron.org

 
 
Автор Сообщение

Sakura

avatar Sakura


Buttobi!! CPU
ぶっとび!! CPU
I Dream of Mimi
Я мечтаю о Мими

Год выпуска: 1997
Жанр: ecchi, comedy, scifi, virtual reality, romance, androids
Серии: ep. 1-3 of 3
Продолжительность: 3*27mn
Цензура: Этти - легкая эротика

Язык: Японский
Озвучка: Оригинальная
Язык: Английский
Озвучка: Профессиональная (полное дублирование)
Субтитры: Есть

Режиссер: Hidaka Masamitsu
Автор оригинала: Shintani Kaoru
Студия: Pink Pineapple

Описание: В течение трех лет Акира жил только ради компьютеров. Когда модель 9821 поступила в продажу, он бегом бежит в магазин, чтобы купить его, но последний компьютер был уже продан за пять минут до его прихода. Огорченно идя домой, он встречает человека в переулке, у которого, случайно, оказался тот самый компьютер. Взволнованный, он покупает его и бежит домой, где обнаруживает, что вместо 9821, он купил 2198 - передовую биомеханическую компьютерную девочку, по имени Мими.

anidb

Доп. информация: За предоставленный диск спасибо Tuzik55555.

Качество видео: DVD9
Формат видео: DVD Video
Видео: MPEG 2, 720-480, 4-3, 29.970 fps, 8800 kbps
Аудио 1: jpn, AC-3, Stereo, 48.0 KHz, 448 kbps
Аудио 2: eng, AC-3, Stereo, 48.0 KHz, 128 kbps
General
Unique ID : 177652235712349108211097631529388778342 (0x85A69377A843CB4CB88C07D33404A366)
Complete name : VTS_01_1.mkv
Format : Matroska
Format version : Version 2
File size : 1.83 GiB
Duration : 27mn 19s
Overall bit rate mode : Variable
Overall bit rate : 9 564 Kbps
Encoded date : UTC 2016-04-14 23:13:49
Writing application : mkvmerge v7.5.0 (''Glass Culture'') 64bit built on Jan 4 2015 16:48:44
Writing library : libebml v1.3.1 + libmatroska v1.4.2

Video
ID : 1
Format : MPEG Video
Format version : Version 2
Format profile : Main@Main
Format settings, BVOP : Yes
Format settings, Matrix : Custom
Format settings, GOP : M=3, N=15
Codec ID : V_MPEG2
Codec ID/Info : MPEG 1 or 2 Video
Duration : 27mn 19s
Bit rate mode : Variable
Bit rate : 8 798 Kbps
Width : 720 pixels
Height : 480 pixels
Display aspect ratio : 4:3
Frame rate mode : Constant
Frame rate : 29.970 fps
Standard : NTSC
Color space : YUV
Chroma subsampling : 4:2:0
Bit depth : 8 bits
Compression mode : Lossy
Bits/(Pixel*Frame) : 0.849
Time code of first frame : 00:00:00:00
Time code source : Group of pictures header
Stream size : 1.68 GiB (92%)
Default : Yes
Forced : No

Audio #1
ID : 2
Format : AC-3
Format/Info : Audio Coding 3
Mode extension : CM (complete main)
Format settings, Endianness : Big
Codec ID : A_AC3
Duration : 27mn 19s
Bit rate mode : Constant
Bit rate : 448 Kbps
Channel(s) : 2 channels
Channel positions : Front: L R
Sampling rate : 48.0 KHz
Bit depth : 16 bits
Compression mode : Lossy
Delay relative to video : -49ms
Stream size : 87.6 MiB (5%)
Default : Yes
Forced : No

Audio #2
ID : 3
Format : AC-3
Format/Info : Audio Coding 3
Mode extension : CM (complete main)
Format settings, Endianness : Big
Codec ID : A_AC3
Duration : 27mn 19s
Bit rate mode : Constant
Bit rate : 128 Kbps
Channel(s) : 2 channels
Channel positions : Front: L R
Sampling rate : 48.0 KHz
Bit depth : 16 bits
Compression mode : Lossy
Delay relative to video : -49ms
Stream size : 25.0 MiB (1%)
Default : No
Forced : No
От [url=...1806723]Narrru[/url] – лучшее качество видео. Там двд5, здесь двд9. Сравнение.
Трекер:  [ 15-Апр-2016 03:30 ]

Размер .torrent файла 30 KB


Размер: 2 GB
Хэш (hash) релиза: 07bedd0a187a5d61a9b342522d66affcb59ec875
Подписка на обновления:

Торренты, похожие на Buttobi!! CPU I Dream of Mimi скачать торрент

Форум Название Автор Размер S L Добавлен
Хентай: основной подраздел / Hentai: main subsection ·· Buttobi!! CPU / I Dream of Mimi / Я мечтаю о Мими (Hidaka Masamitsu, Pink Pineapple) (ep. 1-3 of 3) [uncen] [1997 г. Comedy, SciFi, Virtual Reality, Romance, Androids, DVDRip] [jap / eng / ger / rus] Sakura 15989855631.49 GB 0 0 1405771543

16:05

19-Июл-14

Еще никто не оставлял запись к записи скачать торрент Buttobi!! CPU I Dream of Mimi . Будь первым!

!Обратная связь
//main.js show_panel