Статистика раздачи
Размер:  492 MB   |    Зарегистрирован:  11 месяцев   |    .torrent скачан:  99 раз   |   

Пиры будут получены при скачивании

 

Скачать порно Oshioki: Gakuen Reijou Kousei Keikaku / Школьная программа наказания учениц через торрент бесплатно :: UnionPron.org

 
 
Автор Сообщение

Sakura

avatar Sakura


Oshioki: Gakuen Reijou Kousei Keikaku
懲罰指導 ~学園令嬢更性計画~
Школьная программа наказания учениц

Год выпуска: 2011-2012
Жанр: group sex, school, rape, yuri, students, virgin, swimsuit
Серии: ep. 1-3 of 3
Продолжительность: 3*18mn
Цензура: Отсутствует

Озвучка: Японская оригинальная
Озвучка: Русская любительская (одноголосая) [VashMax2] внешняя
Субтитры: Русские [Svoychuvak] внешние ASS
Субтитры: Английские [SubDESU-H], [FAKKU] (ep. 1) внешние ASS
Субтитры: Вьетнамские [Baka-sub] внешние ASS

Режиссер: Tomii Wataru
Автор оригинала: Tinker Bell
Студия: MS Pictures, Celeb

Описание: My name is Shimohei Joutarou. There is a reason that I''m here, at my new place of work, despite the fact that the school year hasn''t started. On that first day, I almost immediately came across Mitsuki''s and Minami''s secret. I then heard about Mahiru, younger sister of Classics teacher Kuji Hinako, and the astonishing improvement of her grades. I then discover indications of Hinako''s backdoor maneuverings. Now, it is up to me to rehabilitate these students who break the rules.
~ translated and adapted from official site by Cranston

Доп. информация: Реставрация видео, замена хрипящего звука на оригинальный.

Качество видео: DVDrerip [торрент иваниваныч]
Разрешение видео: 480p
Формат видео: MKV
Видео: 638-480, 16-9, 23.976 fps, AVC, 987-1108 kbps
Аудио 1: jpn, AC-3, Stereo, 48.0 KHz, 128 kbps
Аудио 2: rus, AAC, Stereo, 48.0 KHz, 96 kbps
General
Unique ID : 236141453528670610718479449896448194705 (0xB1A7308CA7401305BBDB70CF0F1C7891)
Complete name : Oshioki_-_Gakuen_reijou_kousei_keikaku_01_[RAW][UNCEN][rerip][D5979298].mkv
Format : Matroska
Format version : Version 2
File size : 137 MiB
Duration : 16mn 51s
Overall bit rate : 1 137 Kbps
Encoded date : UTC 2016-04-13 21:39:25
Writing application : mkvmerge v7.5.0 (''Glass Culture'') 64bit built on Jan 4 2015 16:48:44
Writing library : libebml v1.3.1 + libmatroska v1.4.2

Video
ID : 1
Format : AVC
Format/Info : Advanced Video Codec
Format profile : High 10@L5.2
Format settings, CABAC : Yes
Format settings, ReFrames : 16 frames
Codec ID : V_MPEG4/ISO/AVC
Duration : 16mn 51s
Bit rate : 987 Kbps
Width : 638 pixels
Height : 480 pixels
Display aspect ratio : 16:9
Original display aspect ratio : 16:9
Frame rate mode : Constant
Frame rate : 23.976 fps
Color space : YUV
Chroma subsampling : 4:2:0
Bit depth : 10 bits
Scan type : Progressive
Bits/(Pixel*Frame) : 0.134
Stream size : 119 MiB (87%)
Title : Oshioki - Gakuen reijou kousei keikaku 01
Writing library : x264 core 146 r2538 121396c
Encoding settings : cabac=1 / ref=16 / deblock=1:-1:-1 / analyse=0x3:0x133 / me=tesa / subme=9 / psy=0 / mixed_ref=1 / me_range=32 / chroma_me=1 / trellis=0 / 8x8dct=1 / cqm=0 / deadzone=21,11 / fast_pskip=0 / chroma_qp_offset=0 / threads=12 / lookahead_threads=3 / sliced_threads=0 / nr=0 / decimate=1 / interlaced=0 / bluray_compat=0 / constrained_intra=0 / bframes=16 / b_pyramid=2 / b_adapt=2 / b_bias=0 / direct=3 / weightb=1 / open_gop=0 / weightp=2 / keyint=250 / keyint_min=23 / scenecut=40 / intra_refresh=0 / rc_lookahead=60 / rc=crf / mbtree=1 / crf=14.0 / qcomp=0.70 / qpmin=0 / qpmax=81 / qpstep=4 / ip_ratio=1.40 / aq=3:0.60
Language : Japanese
Default : Yes
Forced : No

Audio
ID : 2
Format : AC-3
Format/Info : Audio Coding 3
Mode extension : CM (complete main)
Format settings, Endianness : Big
Codec ID : A_AC3
Duration : 16mn 51s
Bit rate mode : Constant
Bit rate : 128 Kbps
Channel(s) : 2 channels
Channel positions : Front: L R
Sampling rate : 48.0 KHz
Bit depth : 16 bits
Compression mode : Lossy
Stream size : 15.4 MiB (11%)
Title : jpn
Language : Japanese
Default : Yes
Forced : No
General
Unique ID : 239929036785974246938522898121274710987 (0xB480A6D25D581683AD4B5E825C745BCB)
Complete name : Oshioki_-_Gakuen_reijou_kousei_keikaku_02_[RAW][UNCEN][rerip][7EF20C84].mkv
Format : Matroska
Format version : Version 2
File size : 167 MiB
Duration : 19mn 3s
Overall bit rate : 1 225 Kbps
Encoded date : UTC 2016-04-13 21:39:49
Writing application : mkvmerge v7.5.0 (''Glass Culture'') 64bit built on Jan 4 2015 16:48:44
Writing library : libebml v1.3.1 + libmatroska v1.4.2

Video
ID : 1
Format : AVC
Format/Info : Advanced Video Codec
Format profile : High 10@L5.2
Format settings, CABAC : Yes
Format settings, ReFrames : 16 frames
Codec ID : V_MPEG4/ISO/AVC
Duration : 19mn 3s
Bit rate : 1 072 Kbps
Width : 638 pixels
Height : 480 pixels
Display aspect ratio : 16:9
Original display aspect ratio : 16:9
Frame rate mode : Constant
Frame rate : 23.976 fps
Color space : YUV
Chroma subsampling : 4:2:0
Bit depth : 10 bits
Scan type : Progressive
Bits/(Pixel*Frame) : 0.146
Stream size : 146 MiB (88%)
Title : Oshioki - Gakuen reijou kousei keikaku 02
Writing library : x264 core 146 r2538 121396c
Encoding settings : cabac=1 / ref=16 / deblock=1:-1:-1 / analyse=0x3:0x133 / me=tesa / subme=9 / psy=0 / mixed_ref=1 / me_range=32 / chroma_me=1 / trellis=0 / 8x8dct=1 / cqm=0 / deadzone=21,11 / fast_pskip=0 / chroma_qp_offset=0 / threads=12 / lookahead_threads=3 / sliced_threads=0 / nr=0 / decimate=1 / interlaced=0 / bluray_compat=0 / constrained_intra=0 / bframes=16 / b_pyramid=2 / b_adapt=2 / b_bias=0 / direct=3 / weightb=1 / open_gop=0 / weightp=2 / keyint=250 / keyint_min=23 / scenecut=40 / intra_refresh=0 / rc_lookahead=60 / rc=crf / mbtree=1 / crf=14.0 / qcomp=0.70 / qpmin=0 / qpmax=81 / qpstep=4 / ip_ratio=1.40 / aq=3:0.60
Language : Japanese
Default : Yes
Forced : No

Audio
ID : 2
Format : AC-3
Format/Info : Audio Coding 3
Mode extension : CM (complete main)
Format settings, Endianness : Big
Codec ID : A_AC3
Duration : 19mn 3s
Bit rate mode : Constant
Bit rate : 128 Kbps
Channel(s) : 2 channels
Channel positions : Front: L R
Sampling rate : 48.0 KHz
Bit depth : 16 bits
Compression mode : Lossy
Stream size : 17.5 MiB (10%)
Title : jpn
Language : Japanese
Default : Yes
Forced : No
General
Unique ID : 230374586233746816174005868904638113959 (0xAD50880A2E28FCFCA72555A70E24E8A7)
Complete name : Oshioki_-_Gakuen_reijou_kousei_keikaku_03_[RAW][UNCEN][rerip][74D15349].mkv
Format : Matroska
Format version : Version 2
File size : 151 MiB
Duration : 16mn 43s
Overall bit rate : 1 261 Kbps
Encoded date : UTC 2016-04-13 21:40:16
Writing application : mkvmerge v7.5.0 (''Glass Culture'') 64bit built on Jan 4 2015 16:48:44
Writing library : libebml v1.3.1 + libmatroska v1.4.2

Video
ID : 1
Format : AVC
Format/Info : Advanced Video Codec
Format profile : High 10@L5.2
Format settings, CABAC : Yes
Format settings, ReFrames : 16 frames
Codec ID : V_MPEG4/ISO/AVC
Duration : 16mn 43s
Bit rate : 1 108 Kbps
Width : 638 pixels
Height : 480 pixels
Display aspect ratio : 16:9
Original display aspect ratio : 16:9
Frame rate mode : Constant
Frame rate : 23.976 fps
Color space : YUV
Chroma subsampling : 4:2:0
Bit depth : 10 bits
Scan type : Progressive
Bits/(Pixel*Frame) : 0.151
Stream size : 132 MiB (88%)
Title : Oshioki - Gakuen reijou kousei keikaku 03
Writing library : x264 core 146 r2538 121396c
Encoding settings : cabac=1 / ref=16 / deblock=1:-1:-1 / analyse=0x3:0x133 / me=tesa / subme=9 / psy=0 / mixed_ref=1 / me_range=32 / chroma_me=1 / trellis=0 / 8x8dct=1 / cqm=0 / deadzone=21,11 / fast_pskip=0 / chroma_qp_offset=0 / threads=12 / lookahead_threads=3 / sliced_threads=0 / nr=0 / decimate=1 / interlaced=0 / bluray_compat=0 / constrained_intra=0 / bframes=16 / b_pyramid=2 / b_adapt=2 / b_bias=0 / direct=3 / weightb=1 / open_gop=0 / weightp=2 / keyint=250 / keyint_min=23 / scenecut=40 / intra_refresh=0 / rc_lookahead=60 / rc=crf / mbtree=1 / crf=14.0 / qcomp=0.70 / qpmin=0 / qpmax=81 / qpstep=4 / ip_ratio=1.40 / aq=3:0.60
Language : Japanese
Default : Yes
Forced : No

Audio
ID : 2
Format : AC-3
Format/Info : Audio Coding 3
Mode extension : CM (complete main)
Format settings, Endianness : Big
Codec ID : A_AC3
Duration : 16mn 43s
Bit rate mode : Constant
Bit rate : 128 Kbps
Channel(s) : 2 channels
Channel positions : Front: L R
Sampling rate : 48.0 KHz
Bit depth : 16 bits
Compression mode : Lossy
Stream size : 15.3 MiB (10%)
Title : jpn
Language : Japanese
Default : Yes
Forced : No
От [url=...1799742]vattok[/url] – без цензуры , вьетнамские субтитры. От [url=...2020917]SakhJack[/url] – все серии, реставрация, субтитры, озвучка.
Трекер:  [ 14-Апр-2016 02:00 ]

Размер .torrent файла 22 KB


Размер: 492 MB
Хэш (hash) релиза: e00cd454aff25c1a09c6ab6091084b269ba3385e
Подписка на обновления:

Торренты, похожие на Oshioki: Gakuen Reijou Kousei Keikaku Школьная программа наказания учениц скачать торрент

Форум Название Автор Размер S L Добавлен
Хентай: основной подраздел / Hentai: main subsection ·· Oshioki: Gakuen Reijou Kousei Keikaku / Наказание: Школьная Программа для Учениц (Tsuneo Tominaga, MS Pictures, Celeb) (ep 1 of 3) [uncen] [2011 г., Big Tits, Yuri, Rape, Virgins, School, Students, Straight, DVDRip] [jap] Sakura 390072828372 MB 0 0 1435368746

05:32

27-Июн-15

Еще никто не оставлял запись к записи скачать торрент Oshioki: Gakuen Reijou Kousei Keikaku Школьная программа наказания учениц . Будь первым!

!Обратная связь
//main.js show_panel