Статистика раздачи
Размер:  1.92 GB   |    Зарегистрирован:  11 месяцев   |    .torrent скачан:  6 раз   |   

Пиры будут получены при скачивании

 

Скачать порно Choujin Gakuen Gowcaizer: The Voltage Fighters / Школа суперменов Гокайзер - Энергетические воины через торрент бесплатно :: UnionPron.org

 
 
Автор Сообщение

Sakura

avatar Sakura


Choujin Gakuen Gowcaizer: The Voltage Fighters
超人学園ゴウカイザー THE VOLTAGE FIGHTERS
Voltage Fighter Gowcaizer
Школа суперменов Гокайзер - Энергетические воины

Год выпуска: 1996
Жанр: ecchi, action, martial arts, pantsu, science fiction, super power, violence
Серии: ep. 1-3 of 3
Продолжительность: 46mn + 2*29mn
Цензура: Этти - легкая эротика

Озвучка: Японская оригинальная
Субтитры: Русские [Virus] внешние SRT
Субтитры: Английские [DVD R1] внешние ASS
Субтитры: Немецкие [HR&S-Subs] внешние ASS

Режиссер: Oobari Masami
Автор оригинала: SNK Playmore
Студия: J.C.Staff

Описание: Не сказать, чтоб эта OVA забыта незаслуженно, но на широкий круг зрителей и не была, видимо, расчитана. Так-с очередной рекламный ролик файтинг-игрушки в виде OVA.
Сюжетец нам сжато подают "как есть" условия существования мира и персонажей. Это обычное дело для овашек, но тут хотя бы концовочку какую-никакую прикрутили. Что-то объясняется кратко, но если вы "отвлеклись" прослушали, то толком не поймёте, что за организация и рубинчики, почему они есть и у тех и у других, что это за суперсенсей (внезапно "спецборец" с армагедцом от имени японской нации)... Да нафиг он нужен, не? Если вы всё же посмотрели эту OVA, но совершенно забыли что в ней было...

Да, стилизованный "файтинг" и есть, есть злодеи, есть судья (арбитр) - оно жэ "каратель". Карателя этого, к слову, "братец" розоволосого призвал, обретя силушку богатырскую да замутив камешки-артефакты, дабы сколотить себе шайку бандитов и не скучать, на большой дороге. Вероятно из-за того, что обиделся на жизть и людишек. 3 года просидеть на стуле в одной позе... Ну тут крыша у любого, даже самого прожжёного представителя "офисного планктона" съедет ибо гемморрой может и до мозгу дойти (призвал какую-то хреноТЕНЬ и теперь, едва сдерживаясь от выпиливания нашей "гнилой планетки" (по его мнению) кровослёзно просит Героев (с большой буквы Г) выпилить его.

Дизайн персонажей - стандарт середины 90х годов "SD" лица (хотя даже для "SD" прорисованы они так себе) и "модельные" тела. Дизайн костюмов действительно забавный и весьма сложный для ручной прорисовки. Во время просмотра вспомнилась подобного рода вещица с названием "Toushinden", что неудивительно ибо "корни" те же, режиссёр тот же, да и "сюжет" слегка похож. Из эччи тут есть "семейная" любовь в двойном (а может даже в тройном) размере, обтягивающие мини костюмы и сиськи. Кстати 80% экранного времени сисек они не стоят на месте, а деформируются, совершают различные движения (возвратно-поступательные, вращательные, работают на кручение, растяжение/сжатие и т.д.) проще говоря "прыгают" вместе с обладательницами. Костюмы обтягиващие, тонкие и минималистичные по площади покрытия настолько, что вышеупомянутые выпуклости временами таки выпирают и выпрыгивают, всё по той же причине в некоторых местах... (панцушоты для слабаков, да?). Да-да, режиссёр пробовал себя в т.ч. в жанре "который нельзя называть", так что эта составляющая наверное довлела над сюжетом. Ну на этот раз нам хотя бы не подсовывают очередные подтухшие "дыни", игнорирующие законы физики и напичканные искуственными веществами, позволяющими ломать стены и отбивать пули. Это "смотрелово" будет получше многих других рекламных обрезков, неплохо, но без особых претензий. С первоисточником не знаком, но в таком жанре мощного, ядрёного сюжета обычно и не бывает.
© DeathCult, world-art

Доп. информация: Рип с японского, предположитьно скорее всего пережатого двд5, диска.

Качество видео: DVDrip [торрент иваниваныч]
Разрешение видео: 480p
Формат видео: MKV
Видео: 704-480 (ep. 1-2), 700-478 (ep. 3), 4-3, 23.976 fps, AVC, 1959-2401 kbps
Аудио: jpn, AC-3, Stereo, 48.0 KHz, 448 kbps
General
Unique ID : 175514656598722415101414471827668985424 (0x840AE4AE24F58218802EFB515B71E650)
Complete name : Choujin_gakuen_gowcaizer_-_The_voltage_fighters_01_[R2Jrip][Galan_rus_raw][6D0B5E18].mkv
Format : Matroska
Format version : Version 2
File size : 816 MiB
Duration : 46mn 27s
Overall bit rate : 2 456 Kbps
Movie name : рип торрент иваниваныч
Encoded date : UTC 2016-04-09 13:56:59
Writing application : mkvmerge v7.5.0 (''Glass Culture'') 64bit built on Jan 4 2015 16:48:44
Writing library : libebml v1.3.1 + libmatroska v1.4.2

Video
ID : 1
Format : AVC
Format/Info : Advanced Video Codec
Format profile : High 10@L5.2
Format settings, CABAC : Yes
Format settings, ReFrames : 16 frames
Codec ID : V_MPEG4/ISO/AVC
Duration : 46mn 27s
Bit rate : 1 959 Kbps
Width : 704 pixels
Height : 480 pixels
Display aspect ratio : 4:3
Frame rate mode : Constant
Frame rate : 23.976 fps
Standard : NTSC
Color space : YUV
Chroma subsampling : 4:2:0
Bit depth : 10 bits
Scan type : Progressive
Bits/(Pixel*Frame) : 0.242
Stream size : 651 MiB (80%)
Title : Choujin gakuen gowcaizer - The voltage fighters 01
Writing library : x264 core 146 r2538 121396c
Encoding settings : cabac=1 / ref=16 / deblock=1:-1:-1 / analyse=0x3:0x133 / me=tesa / subme=9 / psy=0 / mixed_ref=1 / me_range=32 / chroma_me=1 / trellis=0 / 8x8dct=1 / cqm=0 / deadzone=21,11 / fast_pskip=0 / chroma_qp_offset=0 / threads=12 / lookahead_threads=3 / sliced_threads=0 / nr=0 / decimate=1 / interlaced=0 / bluray_compat=0 / constrained_intra=0 / bframes=16 / b_pyramid=2 / b_adapt=2 / b_bias=0 / direct=3 / weightb=1 / open_gop=0 / weightp=2 / keyint=250 / keyint_min=23 / scenecut=40 / intra_refresh=0 / rc_lookahead=60 / rc=crf / mbtree=1 / crf=14.0 / qcomp=0.70 / qpmin=0 / qpmax=81 / qpstep=4 / ip_ratio=1.40 / aq=3:0.60
Language : Japanese
Default : Yes
Forced : No

Audio
ID : 2
Format : AC-3
Format/Info : Audio Coding 3
Mode extension : CM (complete main)
Format settings, Endianness : Big
Codec ID : A_AC3
Duration : 46mn 27s
Bit rate mode : Constant
Bit rate : 448 Kbps
Channel(s) : 2 channels
Channel positions : Front: L R
Sampling rate : 48.0 KHz
Bit depth : 16 bits
Compression mode : Lossy
Stream size : 149 MiB (18%)
Title : jpn
Language : Japanese
Default : Yes
Forced : No

Menu
00:00:00.000 : en:Chapter 1
00:02:58.233 : en:Chapter 2
00:03:57.933 : en:Chapter 3
00:08:30.266 : en:Chapter 4
00:13:01.532 : en:Chapter 5
00:17:11.999 : en:Chapter 6
00:20:52.866 : en:Chapter 7
00:22:05.899 : en:Chapter 8
00:23:42.065 : en:Chapter 9
00:26:39.732 : en:Chapter 10
00:29:17.499 : en:Chapter 11
00:32:19.066 : en:Chapter 12
00:42:53.599 : en:Chapter 13
00:44:19.665 : en:Chapter 14
General
Unique ID : 179131843066241909622971886274288008652 (0x86C389BE0096CE568FE4019A211BBDCC)
Complete name : Choujin_gakuen_gowcaizer_-_The_voltage_fighters_02_[R2Jrip][Galan_rus_raw][0A77109D].mkv
Format : Matroska
Format version : Version 2
File size : 528 MiB
Duration : 28mn 33s
Overall bit rate : 2 584 Kbps
Movie name : рип торрент иваниваныч
Encoded date : UTC 2016-04-09 13:57:53
Writing application : mkvmerge v7.5.0 (''Glass Culture'') 64bit built on Jan 4 2015 16:48:44
Writing library : libebml v1.3.1 + libmatroska v1.4.2

Video
ID : 1
Format : AVC
Format/Info : Advanced Video Codec
Format profile : High 10@L5.2
Format settings, CABAC : Yes
Format settings, ReFrames : 16 frames
Codec ID : V_MPEG4/ISO/AVC
Duration : 28mn 33s
Bit rate : 2 084 Kbps
Width : 704 pixels
Height : 480 pixels
Display aspect ratio : 4:3
Frame rate mode : Constant
Frame rate : 23.976 fps
Standard : NTSC
Color space : YUV
Chroma subsampling : 4:2:0
Bit depth : 10 bits
Scan type : Progressive
Bits/(Pixel*Frame) : 0.257
Stream size : 426 MiB (81%)
Title : Choujin gakuen gowcaizer - The voltage fighters 02
Writing library : x264 core 146 r2538 121396c
Encoding settings : cabac=1 / ref=16 / deblock=1:-1:-1 / analyse=0x3:0x133 / me=tesa / subme=9 / psy=0 / mixed_ref=1 / me_range=32 / chroma_me=1 / trellis=0 / 8x8dct=1 / cqm=0 / deadzone=21,11 / fast_pskip=0 / chroma_qp_offset=0 / threads=12 / lookahead_threads=3 / sliced_threads=0 / nr=0 / decimate=1 / interlaced=0 / bluray_compat=0 / constrained_intra=0 / bframes=16 / b_pyramid=2 / b_adapt=2 / b_bias=0 / direct=3 / weightb=1 / open_gop=0 / weightp=2 / keyint=250 / keyint_min=23 / scenecut=40 / intra_refresh=0 / rc_lookahead=60 / rc=crf / mbtree=1 / crf=14.0 / qcomp=0.70 / qpmin=0 / qpmax=81 / qpstep=4 / ip_ratio=1.40 / aq=3:0.60
Language : Japanese
Default : Yes
Forced : No

Audio
ID : 2
Format : AC-3
Format/Info : Audio Coding 3
Mode extension : CM (complete main)
Format settings, Endianness : Big
Codec ID : A_AC3
Duration : 28mn 33s
Bit rate mode : Constant
Bit rate : 448 Kbps
Channel(s) : 2 channels
Channel positions : Front: L R
Sampling rate : 48.0 KHz
Bit depth : 16 bits
Compression mode : Lossy
Stream size : 91.5 MiB (17%)
Title : jpn
Language : Japanese
Default : Yes
Forced : No

Menu
00:00:00.000 : en:Chapter 1
00:02:14.233 : en:Chapter 2
00:03:17.700 : en:Chapter 3
00:14:01.100 : en:Chapter 4
00:23:40.100 : en:Chapter 5
00:25:56.500 : en:Chapter 6
General
Unique ID : 196615416718120417436218557642163201138 (0x93EAC079CD77A527A36586716105A472)
Complete name : Choujin_gakuen_gowcaizer_-_The_voltage_fighters_03_[R2Jrip][Galan_rus_raw][4C1E5D1D].mkv
Format : Matroska
Format version : Version 2
File size : 620 MiB
Duration : 29mn 49s
Overall bit rate : 2 907 Kbps
Movie name : рип торрент иваниваныч
Encoded date : UTC 2016-04-09 13:58:40
Writing application : mkvmerge v7.5.0 (''Glass Culture'') 64bit built on Jan 4 2015 16:48:44
Writing library : libebml v1.3.1 + libmatroska v1.4.2

Video
ID : 1
Format : AVC
Format/Info : Advanced Video Codec
Format profile : High 10@L5.2
Format settings, CABAC : Yes
Format settings, ReFrames : 16 frames
Codec ID : V_MPEG4/ISO/AVC
Duration : 29mn 49s
Bit rate : 2 401 Kbps
Width : 700 pixels
Height : 478 pixels
Display aspect ratio : 4:3
Original display aspect ratio : 4:3
Frame rate mode : Constant
Frame rate : 23.976 fps
Color space : YUV
Chroma subsampling : 4:2:0
Bit depth : 10 bits
Scan type : Progressive
Bits/(Pixel*Frame) : 0.299
Stream size : 512 MiB (83%)
Title : Choujin gakuen gowcaizer - The voltage fighters 03
Writing library : x264 core 146 r2538 121396c
Encoding settings : cabac=1 / ref=16 / deblock=1:-1:-1 / analyse=0x3:0x133 / me=tesa / subme=9 / psy=0 / mixed_ref=1 / me_range=32 / chroma_me=1 / trellis=0 / 8x8dct=1 / cqm=0 / deadzone=21,11 / fast_pskip=0 / chroma_qp_offset=0 / threads=12 / lookahead_threads=3 / sliced_threads=0 / nr=0 / decimate=1 / interlaced=0 / bluray_compat=0 / constrained_intra=0 / bframes=16 / b_pyramid=2 / b_adapt=2 / b_bias=0 / direct=3 / weightb=1 / open_gop=0 / weightp=2 / keyint=250 / keyint_min=23 / scenecut=40 / intra_refresh=0 / rc_lookahead=60 / rc=crf / mbtree=1 / crf=14.0 / qcomp=0.70 / qpmin=0 / qpmax=81 / qpstep=4 / ip_ratio=1.40 / aq=3:0.60
Language : Japanese
Default : Yes
Forced : No

Audio
ID : 2
Format : AC-3
Format/Info : Audio Coding 3
Mode extension : CM (complete main)
Format settings, Endianness : Big
Codec ID : A_AC3
Duration : 29mn 49s
Bit rate mode : Constant
Bit rate : 448 Kbps
Channel(s) : 2 channels
Channel positions : Front: L R
Sampling rate : 48.0 KHz
Bit depth : 16 bits
Compression mode : Lossy
Stream size : 95.6 MiB (15%)
Title : jpn
Language : Japanese
Default : Yes
Forced : No

Menu
00:00:00.000 : en:Chapter 1
00:01:05.934 : en:Chapter 2
00:02:21.601 : en:Chapter 3
00:03:36.667 : en:Chapter 4
00:06:55.167 : en:Chapter 5
00:11:43.934 : en:Chapter 6
00:15:10.567 : en:Chapter 7
00:25:37.667 : en:Chapter 8
00:27:07.167 : en:Chapter 9
Трекер:  [ 10-Апр-2016 01:00 ]

Размер .torrent файла 21 KB


Размер: 1.92 GB
Хэш (hash) релиза: c1a934073f097541d606fa9b24d4c5393eea3391
Подписка на обновления:

Еще никто не оставлял запись к записи скачать торрент Choujin Gakuen Gowcaizer: The Voltage Fighters Школа суперменов Гокайзер - Энергетические воины . Будь первым!

!Обратная связь
//main.js show_panel