Статистика раздачи
Размер:  833 MB   |    Зарегистрирован:  1 год 4 месяца   |    .torrent скачан:  90 раз   |   

Пиры будут получены при скачивании

 

Скачать порно Koutetsu no Majo Annerose / Стальная ведьма Аннероуз через торрент бесплатно :: UnionPron.org

 
 
Автор Сообщение

Sakura

avatar Sakura


Koutetsu no Majo Annerose
鋼鉄の魔女 アンネローゼ
Стальная ведьма Аннероуз

Год выпуска: 2012-2014
Жанр: witch, bondage, bigbreasts, blowjob, rape, titsjob, virgin, anal, x-ray, bukkake, group sex
Серии: ep. 1-4 of 4
Продолжительность: 2*30mn + 2*20mn
Цензура: Есть во всех файлах

Озвучка: Японская оригинальная
Субтитры: Русские [Svoychuvak] (ep. 1-2), [Vattok & торрент иваниваныч] (ep. 3-4) внешние ASS
Субтитры: Английские [SubDESU-H], [EROBEAT_LQ] (ep. 1-2), [FAKKU] (ep. 1) внешние ASS
Субтитры: Китайские [Maho.sub] внешние ASS

Режиссер: Kaidou Tsukasa
Автор оригинала: Lilith
Студия: Oz Inc.

Описание: В самом большом городе греха и порока Амидахаре, где по улицам ходить следует только с оружием в руках, обосновалось много неприглядных типов как человеческой, так и демонической породы. Одна из таких демонесс - детектив Аннероуз, могучая ведьма, в чьи приспешники записался человеческий паренёк Татибана Рикуро, среди талантов которого можно отметить разве что огромный заряд жизненной энергии, таящийся в теле и крайне привлекающий разного рода похотливых ведьмочек со всей округи. Но развлечения развлечениями, а работа есть работа. Новым клиентом Аннероуз становится молодая девчушка, тщетно пытающаяся найти своего пропавшего брата в этом осином гнезде разврата и жестокости. Безусловно, знаменитой Аннероуз стоит взяться за такое непыльное дело, рассудил ее помощник Рики-сан, особенно он учел немаловажный для себя факт, что фигурка у клиентки очень даже неплоха!
© happosai, World Art

anidb

Качество видео: DVDrip
Разрешение видео: 480p
Формат видео: MKV
Видео: 720-478 (ep. 1-2), 1024-768 (ep. 3), 720-480 (ep. 4), 16-9, 23.976 fps, AVC, 609-1631 kbps
Аудио: jpn, AC-3 (ep. 1), AAC (ep. 2-4), Stereo, 48.0 KHz, 192 kbps (ep. 1-2), 120 kbps (ep. 3-4)
General
Unique ID : 199232865113882112311029695036607714509 (0x95E2DAA52D1BBE569E452AE5971454CD)
Complete name : Koutetsu_no_majo_Annerose_01_[91ACB796].mkv
Format : Matroska
Format version : Version 4 / Version 2
File size : 153 MiB
Duration : 26mn 10s
Overall bit rate : 817 Kbps
Movie name : рип торрент иваниваныч
Encoded date : UTC 2015-01-16 00:57:38
Writing application : mkvmerge v6.0.0 (''Coming Up For Air'') built on Jan 20 2013 09:52:00
Writing library : libebml v1.3.0 + libmatroska v1.4.0

Video
ID : 1
Format : AVC
Format/Info : Advanced Video Codec
Format profile : High 10@L5.2
Format settings, CABAC : Yes
Format settings, ReFrames : 16 frames
Codec ID : V_MPEG4/ISO/AVC
Duration : 26mn 10s
Bit rate : 609 Kbps
Width : 720 pixels
Height : 478 pixels
Display aspect ratio : 16:9
Frame rate mode : Constant
Frame rate : 23.976 fps
Color space : YUV
Chroma subsampling : 4:2:0
Bit depth : 10 bits
Scan type : Progressive
Bits/(Pixel*Frame) : 0.074
Stream size : 114 MiB (75%)
Title : Koutetsu no majo Annerose 01
Writing library : x264 core 130 r2273 b3065e6
Encoding settings : cabac=1 / ref=16 / deblock=1:1:1 / analyse=0x3:0x133 / me=tesa / subme=9 / psy=0 / mixed_ref=1 / me_range=32 / chroma_me=1 / trellis=0 / 8x8dct=1 / cqm=0 / deadzone=21,11 / fast_pskip=0 / chroma_qp_offset=0 / threads=8 / lookahead_threads=2 / sliced_threads=0 / nr=0 / decimate=1 / interlaced=0 / bluray_compat=0 / constrained_intra=0 / bframes=16 / b_pyramid=2 / b_adapt=2 / b_bias=0 / direct=3 / weightb=1 / open_gop=0 / weightp=2 / keyint=250 / keyint_min=23 / scenecut=40 / intra_refresh=0 / rc_lookahead=60 / rc=crf / mbtree=1 / crf=14.0 / qcomp=0.60 / qpmin=0 / qpmax=81 / qpstep=4 / ip_ratio=1.40 / aq=2:0.60
Language : Japanese
Default : Yes
Forced : No

Audio
ID : 2
Format : AC-3
Format/Info : Audio Coding 3
Mode extension : CM (complete main)
Format settings, Endianness : Big
Codec ID : A_AC3
Duration : 26mn 10s
Bit rate mode : Constant
Bit rate : 192 Kbps
Channel(s) : 2 channels
Channel positions : Front: L R
Sampling rate : 48.0 KHz
Bit depth : 16 bits
Compression mode : Lossy
Stream size : 35.9 MiB (24%)
Title : jpn
Language : Japanese
Default : Yes
Forced : No

Menu
00:00:00.000 : en:Chapter 1
00:00:59.934 : en:Chapter 2
00:02:00.167 : en:Chapter 3
00:02:59.867 : en:Chapter 4
00:03:59.601 : en:Chapter 5
00:04:59.968 : en:Chapter 6
00:05:59.635 : en:Chapter 7
00:06:59.801 : en:Chapter 8
00:07:59.768 : en:Chapter 9
00:08:59.368 : en:Chapter 10
00:09:59.634 : en:Chapter 11
00:10:59.301 : en:Chapter 12
00:11:59.168 : en:Chapter 13
00:12:59.501 : en:Chapter 14
00:13:59.201 : en:Chapter 15
00:14:59.101 : en:Chapter 16
00:15:58.935 : en:Chapter 17
00:16:59.001 : en:Chapter 18
00:17:59.001 : en:Chapter 19
00:18:59.034 : en:Chapter 20
00:19:58.934 : en:Chapter 21
00:20:58.801 : en:Chapter 22
00:21:58.501 : en:Chapter 23
00:22:58.767 : en:Chapter 24
00:23:58.767 : en:Chapter 25
00:26:08.833 : en:Chapter 26
General
Unique ID : 246719479990189517125238576232593772219 (0xB99C718521A96B4C80D4A8E1ED8E4EBB)
Complete name : Koutetsu_no_majo_Annerose_02_[rerip][92EC2552].mkv
Format : Matroska
Format version : Version 2
File size : 233 MiB
Duration : 29mn 14s
Overall bit rate : 1 114 Kbps
Encoded date : UTC 2016-04-07 15:33:56
Writing application : mkvmerge v7.5.0 (''Glass Culture'') 64bit built on Jan 4 2015 16:48:44
Writing library : libebml v1.3.1 + libmatroska v1.4.2

Video
ID : 1
Format : AVC
Format/Info : Advanced Video Codec
Format profile : High 10@L5.2
Format settings, CABAC : Yes
Format settings, ReFrames : 16 frames
Codec ID : V_MPEG4/ISO/AVC
Duration : 29mn 14s
Width : 720 pixels
Height : 478 pixels
Display aspect ratio : 16:9
Frame rate mode : Constant
Frame rate : 23.976 fps
Color space : YUV
Chroma subsampling : 4:2:0
Bit depth : 10 bits
Scan type : Progressive
Title : Koutetsu no majo Annerose 02
Writing library : x264 core 146 r2538 121396c
Encoding settings : cabac=1 / ref=16 / deblock=1:-1:-1 / analyse=0x3:0x133 / me=tesa / subme=9 / psy=0 / mixed_ref=1 / me_range=32 / chroma_me=1 / trellis=0 / 8x8dct=1 / cqm=0 / deadzone=21,11 / fast_pskip=0 / chroma_qp_offset=0 / threads=12 / lookahead_threads=3 / sliced_threads=0 / nr=0 / decimate=1 / interlaced=0 / bluray_compat=0 / constrained_intra=0 / bframes=16 / b_pyramid=2 / b_adapt=2 / b_bias=0 / direct=3 / weightb=1 / open_gop=0 / weightp=2 / keyint=250 / keyint_min=23 / scenecut=40 / intra_refresh=0 / rc_lookahead=60 / rc=crf / mbtree=1 / crf=14.0 / qcomp=0.70 / qpmin=0 / qpmax=81 / qpstep=4 / ip_ratio=1.40 / aq=3:0.60
Language : Japanese
Default : Yes
Forced : No

Audio
ID : 2
Format : AAC
Format/Info : Advanced Audio Codec
Format profile : LC
Codec ID : A_AAC
Duration : 29mn 14s
Channel(s) : 2 channels
Channel positions : Front: L R
Sampling rate : 48.0 KHz
Compression mode : Lossy
Title : jpn
Language : Japanese
Default : Yes
Forced : No
General
Unique ID : 240977698234973141654768187173700669519 (0xB54A9DD2AEF7BD40B008F6D0D608904F)
Complete name : Koutetsu_no_majo_Annerose_03_[1024-576][9EF995A1].mkv
Format : Matroska
Format version : Version 4 / Version 2
File size : 184 MiB
Duration : 20mn 31s
Overall bit rate : 1 251 Kbps
Encoded date : UTC 2014-10-25 04:18:40
Writing application : mkvmerge v7.3.0 (''Nouages'') 64bit built on Oct 22 2014 18:53:34
Writing library : libebml v1.3.0 + libmatroska v1.4.1

Video
ID : 1
Format : AVC
Format/Info : Advanced Video Codec
Format profile : High 10@L4.1
Format settings, CABAC : Yes
Format settings, ReFrames : 9 frames
Codec ID : V_MPEG4/ISO/AVC
Duration : 20mn 31s
Width : 1 024 pixels
Height : 576 pixels
Display aspect ratio : 16:9
Frame rate mode : Constant
Frame rate : 23.976 fps
Color space : YUV
Chroma subsampling : 4:2:0
Bit depth : 10 bits
Scan type : Progressive
Title : 鋼鉄の魔女アンネローゼ 03 魔女の懲罰:Witchpunish
Writing library : x264 core 142 r2431+42 c69a006 tMod [10-bit@all X86_64]
Encoding settings : cabac=1 / ref=9 / deblock=1:1:1 / analyse=0x3:0x133 / me=umh / subme=10 / psy=1 / fade_compensate=1.00 / psy_rd=0.40:0.25 / mixed_ref=0 / me_range=64 / chroma_me=1 / trellis=2 / 8x8dct=1 / cqm=0 / deadzone=21,11 / fast_pskip=1 / chroma_qp_offset=-4 / threads=12 / lookahead_threads=3 / sliced_threads=0 / nr=0 / decimate=0 / interlaced=0 / bluray_compat=0 / constrained_intra=0 / fgo=0 / bframes=16 / b_pyramid=2 / b_adapt=2 / b_bias=0 / direct=3 / weightb=1 / open_gop=0 / weightp=2 / keyint=250 / keyint_min=23 / scenecut=40 / intra_refresh=0 / rc_lookahead=240 / rc=crf / mbtree=1 / crf=16.0000 / qcomp=0.60 / qpmin=12:12:12 / qpmax=48:48:48 / qpstep=4 / ip_ratio=1.40 / aq=4:0.90 / aq-sensitivity=10.00 / aq-factor=1.00:1.00:1.00 / aq2=0 / aq3=0
Language : Japanese
Default : Yes
Forced : No

Audio
ID : 2
Format : AAC
Format/Info : Advanced Audio Codec
Format profile : LC
Codec ID : A_AAC
Duration : 20mn 31s
Channel(s) : 2 channels
Channel positions : Front: L R
Sampling rate : 48.0 KHz
Compression mode : Lossy
Language : Japanese
Default : Yes
Forced : No
General
Complete name : Koutetsu_no_majo_Annerose_04_[Nihonomaru][3D41F5AD].mp4
Format : MPEG-4
Format profile : Base Media
Codec ID : isom
File size : 262 MiB
Duration : 20mn 44s
Overall bit rate mode : Variable
Overall bit rate : 1 764 Kbps
Encoded date : UTC 2014-11-21 20:06:15
Tagged date : UTC 2014-11-21 20:06:15

Video
ID : 1
Format : AVC
Format/Info : Advanced Video Codec
Format profile : Main@L3
Format settings, CABAC : Yes
Format settings, ReFrames : 4 frames
Codec ID : avc1
Codec ID/Info : Advanced Video Coding
Duration : 20mn 44s
Bit rate : 1 631 Kbps
Maximum bit rate : 7 971 Kbps
Width : 720 pixels
Height : 480 pixels
Display aspect ratio : 16:9
Original display aspect ratio : 16:9
Frame rate mode : Constant
Frame rate : 23.976 fps
Standard : NTSC
Color space : YUV
Chroma subsampling : 4:2:0
Bit depth : 8 bits
Scan type : Progressive
Bits/(Pixel*Frame) : 0.197
Stream size : 243 MiB (93%)
Writing library : x264 core 138 r2358 9e941d1
Encoding settings : cabac=1 / ref=3 / deblock=1:0:0 / analyse=0x1:0x111 / me=hex / subme=7 / psy=1 / psy_rd=1.00:0.00 / mixed_ref=1 / me_range=16 / chroma_me=1 / trellis=1 / 8x8dct=0 / cqm=0 / deadzone=21,11 / fast_pskip=1 / chroma_qp_offset=-2 / threads=6 / lookahead_threads=1 / sliced_threads=0 / nr=0 / decimate=1 / interlaced=0 / bluray_compat=0 / constrained_intra=0 / bframes=3 / b_pyramid=2 / b_adapt=1 / b_bias=0 / direct=1 / weightb=1 / open_gop=0 / weightp=2 / keyint=240 / keyint_min=23 / scenecut=40 / intra_refresh=0 / rc_lookahead=40 / rc=2pass / mbtree=1 / bitrate=1631 / ratetol=1.0 / qcomp=0.60 / qpmin=10 / qpmax=51 / qpstep=4 / cplxblur=20.0 / qblur=0.5 / ip_ratio=1.40 / aq=1:1.00
Encoded date : UTC 2014-11-21 20:06:15
Tagged date : UTC 2014-11-21 20:06:18

Audio
ID : 2
Format : AAC
Format/Info : Advanced Audio Codec
Format profile : HE-AAC / LC
Codec ID : 40
Duration : 20mn 44s
Bit rate mode : Variable
Bit rate : 125 Kbps
Maximum bit rate : 145 Kbps
Channel(s) : 2 channels
Channel positions : Front: L R
Sampling rate : 48.0 KHz / 24.0 KHz
Compression mode : Lossy
Stream size : 18.6 MiB (7%)
Encoded date : UTC 2014-11-21 19:55:47
Tagged date : UTC 2014-11-21 20:06:18
File: Koutetsu_no_majo_Annerose_02_[rerip][92EC2552].mkv
Duration: 00:29:15 (1754.56)
Track #1: video (Koutetsu no majo Annerose 02)
lang: jpn (2)
codc: V_MPEG4/ISO/AVC -> H264/AVC (22)
reso: 720x478 (853x478) -> Unknown (aka not common) anamorphic
fram: 23.976 fps
rate: 922 kbps (921.92)
dura: 00:29:14 (1754.42)
size: 192.81 MB (202179310)
Track #2: audio (jpn)
lang: jpn -> Japanese (2)
codc: A_AAC -> AAC (9)
chan: 2 -> Stereo
samp: 48000 Hz
rate: 190 kbps (190.08)
dura: 00:29:15 (1754.52)
size: 39.76 MB (41686798)
Sizes: (check sanity)
disk: 232.94 MB (244250871)
trac: 232.57 MB (243866108) [based on track size]
bitr: 232.57 MB (243863671) [based on bitrate]
tdif: 375.75 KB (384763) 0.15%
bdif: 378.12 KB (387199) 0.15%
File: Koutetsu_no_majo_Annerose_03_[1024-576][9EF995A1].mkv
Duration: 00:20:31 (1231.23)
Track #1: video (←ヒᄐ←ノト ̄チᆴ←ᆳヤ¥ᆬᄈ ̄ツᄁ ̄テᄈ ̄テヘ ̄テᆳ ̄テᄐ ̄ツᄐ 03 ←ᆳヤ¥ᆬᄈ ̄チᆴ₩ヌᄇ￧ᄑᄚ￯ᄐレWitchpunish)
lang: jpn (2)
codc: V_MPEG4/ISO/AVC -> H264/AVC (22)
reso: 1024x576 -> 16:9
fram: 23.976 fps
rate: 1129 kbps (1128.68)
dura: 00:20:31 (1231.19)
size: 165.66 MB (173702448)
Track #2: audio
lang: jpn -> Japanese (2)
codc: A_AAC -> AAC (9)
chan: 2 -> Stereo
samp: 48000 Hz
rate: 121 kbps (120.79)
dura: 00:20:31 (1231.00)
size: 17.73 MB (18587121)
Sizes: (check sanity)
disk: 183.64 MB (192565349)
trac: 183.38 MB (192289569) [based on track size]
bitr: 183.38 MB (192292266) [based on bitrate]
tdif: 269.32 KB (275780) 0.14%
bdif: 266.68 KB (273082) 0.14%
От [url=...1730637]vattok[/url] – лучшее качество видео в 1-3 сериях, китайские субтитры.
01 старый-мой, двд-мой.
02 старый-рерип.
03 старый-новый.

От [url=...1511839]AcDie[/url] – здесь обычный рип, там апскейл только первая серия.
Трекер:  [ 08-Апр-2016 01:30 ]

Размер .torrent файла 19 KB


Размер: 833 MB
Хэш (hash) релиза: 4f798ba4ad2ddf2ef3ab9d0e0ff6daba8cf0fb11
Подписка на обновления:

Еще никто не оставлял запись к записи скачать торрент Koutetsu no Majo Annerose Стальная ведьма Аннероуз . Будь первым!

!Обратная связь
//main.js show_panel