Статистика раздачи
Размер:  1.78 GB   |    Зарегистрирован:  1 год 1 месяц   |    .torrent скачан:  7 раз   |   

Пиры будут получены при скачивании

 

Скачать порно Usagi-chan de Cue!! / Мой пушистый кролик через торрент бесплатно :: UnionPron.org

 
 
Автор Сообщение

Sakura

avatar Sakura


Usagi-chan de Cue!!
うさぎちゃんでキュー
Мой пушистый кролик

Год выпуска: 2001-2002
Жанр: ecchi, action, comedy, harem, school, big tits, pantsu, super power
Серии: ep. 1-3 of 3
Продолжительность: 3*26mn
Цензура: Этти - легкая эротика

Озвучка: Японская оригинальная
Субтитры: Русские [Deep Kamate & Diarusanin & NightSpirit & ShiranaiTenshi.TK], [Star Angel & Ursuladog & VEXl.l.ER] (ep. 1-2), [skvoz''NiAK & Ursuladog & VEXl.l.ER] (ep. 3) внешние ASS
Субтитры: Английские [Futanari & Nameraka & egelteek & Collectr] внешние ASS

Режиссер: Yoshida Tooru
Автор оригинала: Sano Takashi
Студия: Chaos Project

Описание: Инаба Миками дралась с человеком из другой школы на крыше своей, когда туда забрался ее приятель Хару. Увидев. что Миками отвлеклась, парень бросился на нее, разбив кроличьи клетки и заставив их обоих упасть с крыши. Во время падения Миками схватила кролика, но неожиданно она слилась с ним во вспышке розового света. У нее появилось второе "Я", по имени Мимика. Теперь Миками появляется только тогда, когда что-то угрожает ее друзьям. Во всех остальных случаях она принимает форму Мимики.

А еще тут есть сиськи! Нет, не так... СИСЬКИ! Несмотря на это - аниме не хентайное. Просто забавный фансервис. Понравится, наверное, тем, кто любит GreenGreen и другие фансервисные развлекаловки.
© Osia_B_G

anidb

Качество видео: DVDrip [HQR]
Разрешение видео: 576p
Формат видео: MKV
Видео: 768-576, 4-3, VFR, AVC, 2714-2919 kbps
Аудио: jpn, AC-3, Stereo, 48.0 KHz, 192 kbps
General
Unique ID : 197165702328451585389607914267327831805 (0x9454BBA6AD807F518BB048BE9F8B9EFD)
Complete name : Usagi-chan_de_cue!!_01_[VFR][HQR][8AAE3D11].mkv
Format : Matroska
Format version : Version 2
File size : 589 MiB
Duration : 26mn 24s
Overall bit rate : 3 120 Kbps
Movie name : [HQR] Usagi-chan de Cue!! OVA [DVDRip 768x576 h264 ac3]
Encoded date : UTC 2010-12-16 17:34:48
Writing application : mkvmerge v4.4.0 (''Die Wiederkehr'') сборка от Oct 31 2010 21:52:48
Writing library : libebml v1.0.0 + libmatroska v1.0.0

Video
ID : 1
Format : AVC
Format/Info : Advanced Video Codec
Format profile : High@L4.1
Format settings, CABAC : Yes
Format settings, ReFrames : 8 frames
Muxing mode : Header stripping
Codec ID : V_MPEG4/ISO/AVC
Duration : 26mn 24s
Bit rate : 2 866 Kbps
Nominal bit rate : 3 514 Kbps
Width : 768 pixels
Height : 576 pixels
Display aspect ratio : 4:3
Frame rate mode : Constant
Frame rate : 23.976 fps
Original frame rate : 29.970 fps
Color space : YUV
Chroma subsampling : 4:2:0
Bit depth : 8 bits
Scan type : Progressive
Bits/(Pixel*Frame) : 0.270
Stream size : 541 MiB (92%)
Title : [HQR] Usagi-chan de Cue!! OVA -01-
Writing library : x264 core 110 r1820 fdcf2ae
Encoding settings : cabac=1 / ref=8 / deblock=1:-2:-2 / analyse=0x3:0x133 / me=umh / subme=9 / psy=1 / psy_rd=0.90:0.00 / mixed_ref=1 / me_range=24 / chroma_me=1 / trellis=2 / 8x8dct=1 / cqm=0 / deadzone=21,11 / fast_pskip=1 / chroma_qp_offset=-2 / threads=6 / sliced_threads=0 / nr=0 / decimate=1 / interlaced=0 / constrained_intra=0 / bframes=9 / b_pyramid=2 / b_adapt=2 / b_bias=0 / direct=3 / weightb=1 / open_gop=0 / weightp=2 / keyint=240 / keyint_min=24 / scenecut=40 / intra_refresh=0 / rc=2pass / mbtree=0 / bitrate=3514 / ratetol=60.0 / qcomp=0.75 / qpmin=8 / qpmax=24 / qpstep=4 / cplxblur=20.0 / qblur=0.5 / ip_ratio=1.40 / pb_ratio=1.30 / aq=1:0.85
Default : Yes
Forced : No
Color range : Limited
Matrix coefficients : BT.601

Audio
ID : 2
Format : AC-3
Format/Info : Audio Coding 3
Mode extension : CM (complete main)
Format settings, Endianness : Big
Muxing mode : Header stripping
Codec ID : A_AC3
Duration : 26mn 24s
Bit rate mode : Constant
Bit rate : 192 Kbps
Channel(s) : 2 channels
Channel positions : Front: L R
Sampling rate : 48.0 KHz
Bit depth : 16 bits
Compression mode : Lossy
Stream size : 36.3 MiB (6%)
Title : Original
Language : Japanese
Default : Yes
Forced : No
File: Usagi-chan_de_cue!!_02_[VFR][HQR][61D8E66F].mkv
Duration: 00:26:23 (1582.92)
Track #1: video ([HQR] Usagi-chan de Cue!! OVA -02-)
lang: und (1)
codc: V_MPEG4/ISO/AVC -> H264/AVC (22)
reso: 768x576 -> Unknown (aka not common)
fram: hybrid (vfr)
rate: 2979 kbps (2978.94)
dura: 00:26:23 (1582.88)
size: 562.11 MB (589410550)
Track #2: audio (Original)
lang: jpn -> Japanese (2)
codc: A_AC3 -> AC3 (2)
chan: 2 -> Stereo
samp: 48000 Hz
rate: 192 kbps (191.55)
dura: 00:26:23 (1582.66)
size: 36.14 MB (37894994)
Sizes: (check sanity)
disk: 598.89 MB (627980234)
trac: 598.25 MB (627305544) [based on track size]
bitr: 598.25 MB (627310636) [based on bitrate]
tdif: 658.88 KB (674690) 0.10%
bdif: 653.90 KB (669597) 0.10%
Трекер:  [ 07-Апр-2016 01:00 ]

Размер .torrent файла 20 KB


Размер: 1.78 GB
Хэш (hash) релиза: 8a0c6266bfdd0aa0baad375dcadc9a42ae7d7f97
Подписка на обновления:

Еще никто не оставлял запись к записи скачать торрент Usagi-chan de Cue!! Мой пушистый кролик . Будь первым!

!Обратная связь
//main.js show_panel