Статистика раздачи
Размер:  2 GB   |    Зарегистрирован:  1 год 8 месяцев   |    .torrent скачан:  15 раз   |   

Пиры будут получены при скачивании

 

Скачать порно Triage X / Отбор через торрент бесплатно :: UnionPron.org

 
 
Автор Сообщение

Sakura

avatar Sakura


Triage X / トリアージX / Отбор

Год выпуска: 2015
Жанр: Big breasts, Yuri, Bikini, BDSM, Humiliation, Drama, Hospital, Nurse
Серии: ep. 1-10
Продолжительность: 23 min 39 sec
Цензура: Этти - легкая эротика

Язык: Японский
Озвучка: Оригинальная

Язык: Русский
Озвучка: Профессиональная (многоголосая, закадровая) [Anilibria]
Субтитры: Внешние ASS/SSA [AleX_MytH & DJATOM & Jarly & Nachtwandler & Seiya Loveless & Zool & Матадор]

Язык: Английский
Субтитры: Внешние ASS/SSA

Режиссер: Akio Takami, Takao Kato
Автор оригинала: Shōji Satō
Студия: Xebec

Описание: Сюжет аниме рассказывает о группе людей из тайной организации "Черная метка", созданная главой госпиталя Мочизуки и доктором Масамунэ Мочизуки, занимающейся восстановлением справедливости, путем уничтожения бандитов, различных злодеев, пресечение дел всяких нехороших людей, которые, словно "опухоль", заражают их город. У каждого из этих, специально отобранных, людей свои причины быть и действовать в организации и своя предыстория вступления в "Черную метку".

anidb.net

Качество видео: BDRip
Разрешение видео: 720p
Формат видео: MP4
Видео: MPEG4 Video (H264) 1280x720 23.976fps 2710kbps
Аудио 1: AAC 48000Hz stereo 218kbps
Аудио 2: Dolby AC3 48000Hz stereo 192kbps
General
Complete name : ...\[Ohys-Raws] Triage X [BDRip] [720p]\[Ohys-Raws] Triage X - 01 [BDRip] [720p].mp4
Format : MPEG-4
Format profile : Base Media
Codec ID : isom
File size : 496 MiB
Duration : 23mn 39s
Overall bit rate mode : Variable
Overall bit rate : 2 934 Kbps
Encoded date : UTC 2015-10-07 16:43:43
Tagged date : UTC 2015-10-07 16:43:43

Video
ID : 1
Format : AVC
Format/Info : Advanced Video Codec
Format profile : Main@L4.1
Format settings, CABAC : Yes
Format settings, ReFrames : 4 frames
Codec ID : avc1
Codec ID/Info : Advanced Video Coding
Duration : 23mn 39s
Bit rate : 2 711 Kbps
Maximum bit rate : 19.9 Mbps
Width : 1 280 pixels
Height : 720 pixels
Display aspect ratio : 16:9
Frame rate mode : Constant
Frame rate : 23.976 fps
Color space : YUV
Chroma subsampling : 4:2:0
Bit depth : 8 bits
Scan type : Progressive
Bits/(Pixel*Frame) : 0.123
Stream size : 459 MiB (92%)
Writing library : x264 core 148 r2597 e86f3a1
Encoding settings : cabac=1 / ref=3 / deblock=1:0:0 / analyse=0x1:0x131 / me=umh / subme=9 / psy=1 / psy_rd=1.00:0.00 / mixed_ref=1 / me_range=32 / chroma_me=1 / trellis=1 / 8x8dct=0 / cqm=0 / deadzone=21,11 / fast_pskip=1 / chroma_qp_offset=-2 / threads=12 / lookahead_threads=1 / sliced_threads=0 / nr=0 / decimate=1 / interlaced=0 / bluray_compat=0 / constrained_intra=0 / bframes=3 / b_pyramid=2 / b_adapt=1 / b_bias=0 / direct=1 / weightb=1 / open_gop=0 / weightp=2 / keyint=240 / keyint_min=1 / scenecut=40 / intra_refresh=0 / rc_lookahead=40 / rc=crf / mbtree=1 / crf=17.0 / qcomp=0.60 / qpmin=0 / qpmax=69 / qpstep=4 / ip_ratio=1.40 / aq=1:1.00
Encoded date : UTC 2015-10-07 16:43:43
Tagged date : UTC 2015-10-07 16:43:57

Audio
ID : 2
Format : AAC
Format/Info : Advanced Audio Codec
Format profile : LC
Codec ID : 40
Duration : 23mn 39s
Bit rate mode : Variable
Bit rate : 219 Kbps
Maximum bit rate : 262 Kbps
Channel(s) : 2 channels
Channel positions : Front: L R
Sampling rate : 48.0 KHz
Compression mode : Lossy
Stream size : 37.1 MiB (7%)
Language : Japanese
Encoded date : UTC 2015-10-07 16:37:23
Tagged date : UTC 2015-10-07 16:43:57
Трекер:  [ 07-Апр-2016 01:00 ]

Размер .torrent файла 26 KB


Размер: 2 GB
Хэш (hash) релиза: b0289042782610b88c02bbb34b6b42c2e0b37388
Подписка на обновления:

Еще никто не оставлял запись к записи скачать торрент Triage X Отбор . Будь первым!

!Обратная связь
//main.js show_panel