Статистика раздачи
Размер:  678 MB   |    Зарегистрирован:  1 год 7 месяцев   |    .torrent скачан:  48 раз   |   

Пиры будут получены при скачивании

 

Скачать порно Spotlight / Свет рампы через торрент бесплатно :: UnionPron.org

 
 
Автор Сообщение

Sakura

avatar Sakura


Spotlight
スポットライト
Свет рампы

Год выпуска: 2002
Жанр: idol, music, group sex
Серии: ep. 1-2 of 2
Продолжительность: 2*30mn
Цензура: Отсутствует

Озвучка: Японская оригинальная
Озвучка: Английская профессиональная (полное дублирование) внешняя
Озвучка: Русская любительская (одноголосая) внешняя
Субтитры: Английские внешние SRT

Автор оригинала: Blue Gale
Студия: Y.O.U.C., Digital Works

Описание: Saori is cute, perky, and dreams of being a star! Along with the beautiful Yuna and the striking Erica, Saori is part of a new female pop group named Twinkle - and this hot little group is ready for their big debut! But this tantalizing trio is about to discover that the music industry is ruthless and demanding of its female artists! First, band manager Masaki decides to give Yuna and Erica a special session in pleasure and pain... Then, as lead singer, it''s up to Saori to get the band past Kijima, the shady don of the entertainment business. Using his position to fulfill his wildest desires with all of the hot new pop idols, he''ll never even consider giving anyone a chance at a big break until after his carnal desires have been satisfied. Saori''s mother knows this all too well; to get Twinkle noticed, she''s already given in to his erotic demands.

Качество видео: DVDrip [торрент иваниваныч]
Разрешение видео: 480p
Формат видео: MKV
Видео: 712-480, 4-3, 23.976 fps, AVC, 1057 kbps (ep. 1), 951 kbps (ep. 2)
Аудио 1: jpn, AC-3, Stereo, 48.0 KHz, 192 kbps
Аудио 2: eng, AC-3, Stereo, 48.0 KHz, 192 kbps
Аудио 3: rus, MP3, Stereo, 48.0 KHz, 128 kbps
General
Unique ID : 219263722691258707374712367867852657778 (0xA4F4A82C3ACC9244A879EF3A8ABA9472)
Complete name : Spotlight_01_[B312C71E].mkv
Format : Matroska
Format version : Version 2
File size : 279 MiB
Duration : 30mn 36s
Overall bit rate : 1 274 Kbps
Movie name : рип торрент иваниваныч
Encoded date : UTC 2016-04-06 14:08:44
Writing application : mkvmerge v7.5.0 (''Glass Culture'') 64bit built on Jan 4 2015 16:48:44
Writing library : libebml v1.3.1 + libmatroska v1.4.2

Video
ID : 1
Format : AVC
Format/Info : Advanced Video Codec
Format profile : High 10@L5.2
Format settings, CABAC : Yes
Format settings, ReFrames : 16 frames
Codec ID : V_MPEG4/ISO/AVC
Duration : 30mn 36s
Bit rate : 1 057 Kbps
Width : 712 pixels
Height : 480 pixels
Display aspect ratio : 4:3
Frame rate mode : Constant
Frame rate : 23.976 fps
Color space : YUV
Chroma subsampling : 4:2:0
Bit depth : 10 bits
Scan type : Progressive
Bits/(Pixel*Frame) : 0.129
Stream size : 231 MiB (83%)
Title : Spotlight 01
Writing library : x264 core 146 r2538 121396c
Encoding settings : cabac=1 / ref=16 / deblock=1:-1:-1 / analyse=0x3:0x133 / me=tesa / subme=9 / psy=0 / mixed_ref=1 / me_range=32 / chroma_me=1 / trellis=0 / 8x8dct=1 / cqm=0 / deadzone=21,11 / fast_pskip=0 / chroma_qp_offset=0 / threads=12 / lookahead_threads=3 / sliced_threads=0 / nr=0 / decimate=1 / interlaced=0 / bluray_compat=0 / constrained_intra=0 / bframes=16 / b_pyramid=2 / b_adapt=2 / b_bias=0 / direct=3 / weightb=1 / open_gop=0 / weightp=2 / keyint=250 / keyint_min=23 / scenecut=40 / intra_refresh=0 / rc_lookahead=60 / rc=crf / mbtree=1 / crf=14.0 / qcomp=0.70 / qpmin=0 / qpmax=81 / qpstep=4 / ip_ratio=1.40 / aq=3:0.60
Language : Japanese
Default : Yes
Forced : No

Audio
ID : 2
Format : AC-3
Format/Info : Audio Coding 3
Mode extension : CM (complete main)
Format settings, Endianness : Big
Codec ID : A_AC3
Duration : 30mn 36s
Bit rate mode : Constant
Bit rate : 192 Kbps
Channel(s) : 2 channels
Channel positions : Front: L R
Sampling rate : 48.0 KHz
Bit depth : 16 bits
Compression mode : Lossy
Stream size : 42.0 MiB (15%)
Title : jpn
Language : Japanese
Default : Yes
Forced : No

Menu
00:00:00.000 : en:Chapter 1
00:01:41.500 : en:Chapter 2
00:03:26.000 : en:Chapter 3
00:09:20.500 : en:Chapter 4
00:11:30.000 : en:Chapter 5
00:16:17.500 : en:Chapter 6
00:18:54.500 : en:Chapter 7
00:27:27.000 : en:Chapter 8
00:29:33.000 : en:Chapter 9
General
Unique ID : 174031528260524474380772845291570854776 (0x82ED40CEBAC02E7C84BD30388719FB78)
Complete name : Spotlight_02_[21C61883].mkv
Format : Matroska
Format version : Version 2
File size : 257 MiB
Duration : 30mn 48s
Overall bit rate : 1 166 Kbps
Movie name : рип торрент иваниваныч
Encoded date : UTC 2016-04-06 14:09:48
Writing application : mkvmerge v7.5.0 (''Glass Culture'') 64bit built on Jan 4 2015 16:48:44
Writing library : libebml v1.3.1 + libmatroska v1.4.2

Video
ID : 1
Format : AVC
Format/Info : Advanced Video Codec
Format profile : High 10@L5.2
Format settings, CABAC : Yes
Format settings, ReFrames : 16 frames
Codec ID : V_MPEG4/ISO/AVC
Duration : 30mn 48s
Bit rate : 951 Kbps
Width : 712 pixels
Height : 480 pixels
Display aspect ratio : 4:3
Frame rate mode : Constant
Frame rate : 23.976 fps
Color space : YUV
Chroma subsampling : 4:2:0
Bit depth : 10 bits
Scan type : Progressive
Bits/(Pixel*Frame) : 0.116
Stream size : 210 MiB (82%)
Title : Spotlight 02
Writing library : x264 core 146 r2538 121396c
Encoding settings : cabac=1 / ref=16 / deblock=1:-1:-1 / analyse=0x3:0x133 / me=tesa / subme=9 / psy=0 / mixed_ref=1 / me_range=32 / chroma_me=1 / trellis=0 / 8x8dct=1 / cqm=0 / deadzone=21,11 / fast_pskip=0 / chroma_qp_offset=0 / threads=12 / lookahead_threads=3 / sliced_threads=0 / nr=0 / decimate=1 / interlaced=0 / bluray_compat=0 / constrained_intra=0 / bframes=16 / b_pyramid=2 / b_adapt=2 / b_bias=0 / direct=3 / weightb=1 / open_gop=0 / weightp=2 / keyint=250 / keyint_min=23 / scenecut=40 / intra_refresh=0 / rc_lookahead=60 / rc=crf / mbtree=1 / crf=14.0 / qcomp=0.70 / qpmin=0 / qpmax=81 / qpstep=4 / ip_ratio=1.40 / aq=3:0.60
Language : Japanese
Default : Yes
Forced : No

Audio
ID : 2
Format : AC-3
Format/Info : Audio Coding 3
Mode extension : CM (complete main)
Format settings, Endianness : Big
Codec ID : A_AC3
Duration : 30mn 48s
Bit rate mode : Constant
Bit rate : 192 Kbps
Channel(s) : 2 channels
Channel positions : Front: L R
Sampling rate : 48.0 KHz
Bit depth : 16 bits
Compression mode : Lossy
Stream size : 42.3 MiB (16%)
Title : jpn
Language : Japanese
Default : Yes
Forced : No

Menu
00:00:00.000 : en:Chapter 1
00:00:21.500 : en:Chapter 2
00:02:01.000 : en:Chapter 3
00:03:57.500 : en:Chapter 4
00:09:44.500 : en:Chapter 5
00:17:40.000 : en:Chapter 6
00:20:29.500 : en:Chapter 7
00:27:34.500 : en:Chapter 8
00:29:45.000 : en:Chapter 9
От [url=...1079334]Narrru[/url] – лучшее качество видео. Сравнение, сравнение с двд.
Трекер:  [ 06-Апр-2016 22:30 ]

Размер .torrent файла 14 KB


Размер: 678 MB
Хэш (hash) релиза: c1bb0163d542e87c27a55140274664f8cdff8009
Подписка на обновления:

Еще никто не оставлял запись к записи скачать торрент Spotlight Свет рампы . Будь первым!

!Обратная связь
//main.js show_panel