Статистика раздачи
Размер:  591 MB   |    Зарегистрирован:  1 год 4 месяца   |    .torrent скачан:  98 раз   |   

Пиры будут получены при скачивании

 

Скачать порно Sweet Home: H na Onee-san wa Suki Desuka?/Милый дом: А вы любите извращённую старшую сестрёнку? через торрент бесплатно :: UnionPron.org

 
 
Автор Сообщение

Sakura

avatar Sakura


Sweet Home: H na Onee-san wa Suki Desuka?
Sweet Home~Hなお姉さんは好きですか?~
Милый дом: А вы любите извращённую старшую сестрёнку?

Год выпуска: 2011
Жанр: harem, incest, straight, yuri, virgin, big tits, oral sex, anal sex, group sex, titsjob, bikini, toys
Серии: ep. 1-3 of 3
Продолжительность: 3*20mn
Цензура: Отсутствует

Озвучка: Японская оригинальная
Озвучка: Русская любительская (одноголосая) [VashMax2] внешняя
Субтитры: Русские [AT Team] Перевод низкого качества (ep. 1-2), [Vattok & торрент_иваниваныч] (ep. 3) внешние ASS
Субтитры: Английские [SubDESU-H], [Shikkaku] (ep. 2-3) внешние ASS
Субтитры: Испанские [AnM] внешние ASS
Субтитры: Польские [Nyan] внешние ASS
Субтитры: Корейские внешние ASS

Автор оригинала: Code Pink
Студия: Celeb

Описание: Рюити обычный японский школьник. Несмотря на то, что он жил один, Рюити был совершенно счастлив. Но вот его квартира сгорает дотла во время пожара. Без особой охоты он возвращается в свой отчий дом. Вернувшись, он обнаружил: в его доме теперь пансионат для девчонок! Казалось, что Рюити остался без крова над головой. Однако, девушки оказались не против такого соседства! Тут-то все и начинается...
© Diego300, Venzell

Доп. информация: Реставрация видео, замена хрипящего звука на оригинальный.

Качество видео: DVDrerip [торрент иваниваныч]
Разрешение видео: 480p
Формат видео: MKV
Видео: 640-480 (ep. 1), 852-480 (ep. 2-3), 16-9, 23.976 fps, AVC, 860-1045 kbps
Аудио 1: jpn, AC-3, Stereo, 48.0 KHz, 384 kbps
Аудио 2: rus, AAC, Stereo, 48.0 KHz, 96 kbps
General
Unique ID : 171161020361671829928489736164894620674 (0x80C469D76080F25DB9C9F9765BD4BC02)
Complete name : Sweet_home_-_H_na_onee-san_wa_suki_desuka_01_[RAW][UNCEN][rerip][04CE6C8B].mkv
Format : Matroska
Format version : Version 2
File size : 211 MiB
Duration : 20mn 16s
Overall bit rate : 1 458 Kbps
Encoded date : UTC 2016-04-05 16:15:01
Writing application : mkvmerge v7.5.0 (''Glass Culture'') 64bit built on Jan 4 2015 16:48:44
Writing library : libebml v1.3.1 + libmatroska v1.4.2

Video
ID : 1
Format : AVC
Format/Info : Advanced Video Codec
Format profile : High 10@L5.2
Format settings, CABAC : Yes
Format settings, ReFrames : 16 frames
Codec ID : V_MPEG4/ISO/AVC
Duration : 20mn 16s
Bit rate : 1 045 Kbps
Width : 640 pixels
Height : 480 pixels
Display aspect ratio : 16:9
Frame rate mode : Constant
Frame rate : 23.976 fps
Color space : YUV
Chroma subsampling : 4:2:0
Bit depth : 10 bits
Scan type : Progressive
Bits/(Pixel*Frame) : 0.142
Stream size : 152 MiB (72%)
Title : Sweet home - H na onee-san wa suki desuka 01
Writing library : x264 core 146 r2538 121396c
Encoding settings : cabac=1 / ref=16 / deblock=1:-1:-1 / analyse=0x3:0x133 / me=tesa / subme=9 / psy=0 / mixed_ref=1 / me_range=32 / chroma_me=1 / trellis=0 / 8x8dct=1 / cqm=0 / deadzone=21,11 / fast_pskip=0 / chroma_qp_offset=0 / threads=12 / lookahead_threads=3 / sliced_threads=0 / nr=0 / decimate=1 / interlaced=0 / bluray_compat=0 / constrained_intra=0 / bframes=16 / b_pyramid=2 / b_adapt=2 / b_bias=0 / direct=3 / weightb=1 / open_gop=0 / weightp=2 / keyint=250 / keyint_min=23 / scenecut=40 / intra_refresh=0 / rc_lookahead=60 / rc=crf / mbtree=1 / crf=14.0 / qcomp=0.70 / qpmin=0 / qpmax=81 / qpstep=4 / ip_ratio=1.40 / aq=3:0.60
Language : Japanese
Default : Yes
Forced : No

Audio
ID : 2
Format : AC-3
Format/Info : Audio Coding 3
Mode extension : CM (complete main)
Format settings, Endianness : Big
Codec ID : A_AC3
Duration : 20mn 16s
Bit rate mode : Constant
Bit rate : 384 Kbps
Channel(s) : 2 channels
Channel positions : Front: L R
Sampling rate : 48.0 KHz
Bit depth : 16 bits
Compression mode : Lossy
Stream size : 55.7 MiB (26%)
Title : jpn
Language : Japanese
Default : Yes
Forced : No
General
Unique ID : 209121196870952511212597364937072083899 (0x9D53470AA1E0CAE291385CCAF3A483BB)
Complete name : Sweet_home_-_H_na_onee-san_wa_suki_desuka_02_[RAW][UNCEN][rerip][7B09B165].mkv
Format : Matroska
Format version : Version 2
File size : 155 MiB
Duration : 20mn 11s
Overall bit rate : 1 075 Kbps
Encoded date : UTC 2016-04-05 16:15:26
Writing application : mkvmerge v7.5.0 (''Glass Culture'') 64bit built on Jan 4 2015 16:48:44
Writing library : libebml v1.3.1 + libmatroska v1.4.2

Video
ID : 1
Format : AVC
Format/Info : Advanced Video Codec
Format profile : High 10@L5.2
Format settings, CABAC : Yes
Format settings, ReFrames : 16 frames
Codec ID : V_MPEG4/ISO/AVC
Duration : 20mn 11s
Bit rate : 926 Kbps
Width : 852 pixels
Height : 480 pixels
Display aspect ratio : 16:9
Frame rate mode : Constant
Frame rate : 23.976 fps
Color space : YUV
Chroma subsampling : 4:2:0
Bit depth : 10 bits
Scan type : Progressive
Bits/(Pixel*Frame) : 0.094
Stream size : 134 MiB (86%)
Title : Sweet home - H na onee-san wa suki desuka 02
Writing library : x264 core 146 r2538 121396c
Encoding settings : cabac=1 / ref=16 / deblock=1:-1:-1 / analyse=0x3:0x133 / me=tesa / subme=9 / psy=0 / mixed_ref=1 / me_range=32 / chroma_me=1 / trellis=0 / 8x8dct=1 / cqm=0 / deadzone=21,11 / fast_pskip=0 / chroma_qp_offset=0 / threads=12 / lookahead_threads=3 / sliced_threads=0 / nr=0 / decimate=1 / interlaced=0 / bluray_compat=0 / constrained_intra=0 / bframes=16 / b_pyramid=2 / b_adapt=2 / b_bias=0 / direct=3 / weightb=1 / open_gop=0 / weightp=2 / keyint=250 / keyint_min=23 / scenecut=40 / intra_refresh=0 / rc_lookahead=60 / rc=crf / mbtree=1 / crf=14.0 / qcomp=0.70 / qpmin=0 / qpmax=81 / qpstep=4 / ip_ratio=1.40 / aq=3:0.60
Language : Japanese
Default : Yes
Forced : No

Audio
ID : 2
Format : AC-3
Format/Info : Audio Coding 3
Mode extension : CM (complete main)
Format settings, Endianness : Big
Codec ID : A_AC3
Duration : 20mn 11s
Bit rate mode : Constant
Bit rate : 128 Kbps
Channel(s) : 2 channels
Channel positions : Front: L R
Sampling rate : 48.0 KHz
Bit depth : 16 bits
Compression mode : Lossy
Stream size : 18.5 MiB (12%)
Title : jpn
Language : Japanese
Default : Yes
Forced : No
General
Unique ID : 210515158261261919785146749045871040946 (0x9E5FBEA4F08832FEADAF8CE0754959B2)
Complete name : Sweet_home_-_H_na_onee-san_wa_suki_desuka_03_[RAW][UNCEN][rerip][F2A67564].mkv
Format : Matroska
Format version : Version 2
File size : 176 MiB
Duration : 19mn 26s
Overall bit rate : 1 269 Kbps
Encoded date : UTC 2016-04-05 16:15:57
Writing application : mkvmerge v7.5.0 (''Glass Culture'') 64bit built on Jan 4 2015 16:48:44
Writing library : libebml v1.3.1 + libmatroska v1.4.2

Video
ID : 1
Format : AVC
Format/Info : Advanced Video Codec
Format profile : High 10@L5.2
Format settings, CABAC : Yes
Format settings, ReFrames : 16 frames
Codec ID : V_MPEG4/ISO/AVC
Duration : 19mn 26s
Bit rate : 860 Kbps
Width : 852 pixels
Height : 480 pixels
Display aspect ratio : 16:9
Frame rate mode : Constant
Frame rate : 23.976 fps
Color space : YUV
Chroma subsampling : 4:2:0
Bit depth : 10 bits
Scan type : Progressive
Bits/(Pixel*Frame) : 0.088
Stream size : 120 MiB (68%)
Title : Sweet home - H na onee-san wa suki desuka 03
Writing library : x264 core 146 r2538 121396c
Encoding settings : cabac=1 / ref=16 / deblock=1:-1:-1 / analyse=0x3:0x133 / me=tesa / subme=9 / psy=0 / mixed_ref=1 / me_range=32 / chroma_me=1 / trellis=0 / 8x8dct=1 / cqm=0 / deadzone=21,11 / fast_pskip=0 / chroma_qp_offset=0 / threads=12 / lookahead_threads=3 / sliced_threads=0 / nr=0 / decimate=1 / interlaced=0 / bluray_compat=0 / constrained_intra=0 / bframes=16 / b_pyramid=2 / b_adapt=2 / b_bias=0 / direct=3 / weightb=1 / open_gop=0 / weightp=2 / keyint=250 / keyint_min=23 / scenecut=40 / intra_refresh=0 / rc_lookahead=60 / rc=crf / mbtree=1 / crf=14.0 / qcomp=0.70 / qpmin=0 / qpmax=81 / qpstep=4 / ip_ratio=1.40 / aq=3:0.60
Language : Japanese
Default : Yes
Forced : No

Audio
ID : 2
Format : AC-3
Format/Info : Audio Coding 3
Mode extension : CM (complete main)
Format settings, Endianness : Big
Codec ID : A_AC3
Duration : 19mn 26s
Bit rate mode : Constant
Bit rate : 384 Kbps
Channel(s) : 2 channels
Channel positions : Front: L R
Sampling rate : 48.0 KHz
Bit depth : 16 bits
Compression mode : Lossy
Stream size : 53.4 MiB (30%)
Title : jpn
Language : Japanese
Default : Yes
Forced : No
От [url=...1764730]vattok[/url] – без цензуры , субтитры. От [url=...2021813]SakhJack[/url] – все серии, реставрация, субтитры, озвучка.
Трекер:  [ 06-Апр-2016 01:00 ]

Размер .torrent файла 15 KB


Размер: 591 MB
Хэш (hash) релиза: b56b38cea43a8d13617a0136cb8fb10b1b048a78
Подписка на обновления:

Еще никто не оставлял запись к записи скачать торрент Sweet Home: H na Onee-san wa Suki Desuka?Милый дом: А вы любите извращённую старшую сестрёнку . Будь первым!

!Обратная связь
//main.js show_panel