Статистика раздачи
Размер:  778 MB   |    Зарегистрирован:  1 год 1 месяц   |    .torrent скачан:  22 раза   |   

Пиры будут получены при скачивании

 

Скачать порно Baby Princess 3D Paradise Love / Юные принцессы. Райское влечение. через торрент бесплатно :: UnionPron.org

 
 
Автор Сообщение

Sakura

avatar Sakura


Baby Princess 3D Paradise Love
ベイビー・プリンセス 3Dぱらだいす0[ラブ]
Юные принцессы. Райское влечение.

Год выпуска: 2011
Жанр: ecchi, comedy, harem, big tits, small tits, swimsuit
Серии: ep. 1 of 1
Продолжительность: 29mn 46s
Цензура: Этти - легкая эротика

Озвучка: Японская оригинальная
Субтитры: Русские [Karsh & YakuSub Studio] внешние ASS
Субтитры: Английские [FFFpeeps & Interrobang] внешние ASS
Субтитры: Немецкие [Pantsu] внешние ASS
Субтитры: Испанские [Shin] внешние ASS

Режиссер: Inagaki Takayuki
Автор оригинала: Kimino Sakurako
Студия: Studio Comet

Описание: Вот скажите честно, вы ведь всегда были уверены, что гарем (японский обыкновенный) это один парень и 4-5 девушек? Ну, ну... А 19 девушек (плюс одна, ну очень аппетитная мама) не хотите? И пусть некоторым из них слишком мало лет, прецедент все же создан! Да, такого количества дев на единицу мужского населения я еще не видел. Здесь есть, пожалуй, ВСЕ виды и типы девушек, начиная от девушки в очках и заканчивая девочкой с псевдо королевскими замашками. Как говорится, полный спектр развлечений! В программе присутствуют - поездка на горячий источник, с очень тонкой метафорой про подводные лодки, а также вылазка на природу с элементами нудизма. Смех и веселье гарантированы! Рекомендовано к просмотру для быстрого поднятия тонуса. Внимание, содержит поцелуи!
© WAComment, world-art

Доп. информация: Это скорее пародия, чем... Да какая разница!

Качество видео: BDRip [Winter]
Разрешение видео: 720p
Формат видео: MKV
Видео: 1280-720, 16-9, 23.976 fps, AVC, 3170 kbps
Аудио: jpn, OGG, Stereo, 48.0 KHz, 256 kbps
General
Unique ID : 196662182300258429425343966761013767108 (0x93F3C2326F16F6FEA196B04AF5E86BC4)
Complete name : [Winter] Baby Princess 3D Paradise Love [BDrip 1280x720 x264 Vorbis].mkv
Format : Matroska
Format version : Version 2
File size : 745 MiB
Duration : 29mn 46s
Overall bit rate mode : Variable
Overall bit rate : 3 495 Kbps
Encoded date : UTC 2014-04-06 17:51:03
Writing application : mkvmerge v2.9.8 (''C''est le bon'') built on Aug 13 2009 12:49:06
Writing library : libebml v0.7.7 + libmatroska v0.8.1

Video
ID : 1
Format : AVC
Format/Info : Advanced Video Codec
Format profile : High 10@L4.1
Format settings, CABAC : Yes
Format settings, ReFrames : 9 frames
Codec ID : V_MPEG4/ISO/AVC
Duration : 29mn 46s
Bit rate : 3 170 Kbps
Width : 1 280 pixels
Height : 720 pixels
Display aspect ratio : 16:9
Frame rate mode : Constant
Frame rate : 23.976 fps
Color space : YUV
Chroma subsampling : 4:2:0
Bit depth : 10 bits
Scan type : Progressive
Bits/(Pixel*Frame) : 0.143
Stream size : 675 MiB (91%)
Writing library : x264 core 132 r2309 3b1f1f7
Encoding settings : cabac=1 / ref=9 / deblock=1:-2:-2 / analyse=0x3:0x133 / me=umh / subme=9 / psy=1 / psy_rd=0.90:0.00 / mixed_ref=1 / me_range=24 / chroma_me=1 / trellis=2 / 8x8dct=1 / cqm=0 / deadzone=21,11 / fast_pskip=1 / chroma_qp_offset=-2 / threads=12 / lookahead_threads=2 / sliced_threads=0 / nr=0 / decimate=0 / interlaced=0 / bluray_compat=0 / constrained_intra=0 / bframes=8 / b_pyramid=2 / b_adapt=2 / b_bias=0 / direct=1 / weightb=1 / open_gop=0 / weightp=2 / keyint=250 / keyint_min=23 / scenecut=40 / intra_refresh=0 / rc=crf / mbtree=0 / crf=15.7 / qcomp=0.70 / qpmin=9 / qpmax=40 / qpstep=4 / ip_ratio=1.40 / pb_ratio=1.30 / aq=1:0.90 / zones=8106,9518,b=1.2
Default : No
Forced : No

Audio
ID : 2
Format : Vorbis
Format settings, Floor : 1
Codec ID : A_VORBIS
Duration : 29mn 46s
Bit rate mode : Variable
Bit rate : 256 Kbps
Channel(s) : 2 channels
Sampling rate : 48.0 KHz
Compression mode : Lossy
Stream size : 54.5 MiB (7%)
Writing library : libVorbis (Schaufenugget) (20101101 (Schaufenugget))
Language : Japanese
Default : Yes
Forced : No
Трекер:  [ 05-Апр-2016 17:00 ]

Размер .torrent файла 19 KB


Размер: 778 MB
Хэш (hash) релиза: 7f5f23bb7daa31fd845b0b2039300b09c8dbd89e
Подписка на обновления:

Еще никто не оставлял запись к записи скачать торрент Baby Princess 3D Paradise Love Юные принцессы. Райское влечение. . Будь первым!

!Обратная связь
//main.js show_panel