Статистика раздачи
Размер:  377 MB   |    Зарегистрирован:  1 год   |    .torrent скачан:  7 раз   |   

Пиры будут получены при скачивании

 

Скачать порно Shoujo kara Shoujo e... / А девочка созрела... через торрент бесплатно :: UnionPron.org

 
 
Автор Сообщение

Sakura

avatar Sakura


Shoujo kara Shoujo e...
少女から娼女へ...
А девочка созрела...

Год выпуска: 2016
Жанр: oral sex, handjob, virgin, peeing, creampie
Серии: ep. 1-2 of ?
Продолжительность: 2*17mn
Цензура: Есть во всех файлах

Озвучка: Японская оригинальная
Субтитры: Русские [hentai.anime-share.ru & торрент иваниваныч] (ep. 1) внешние ASS
Субтитры: Английские [HH] внешние ASS
Субтитры: Китайские [Maho.sub] внешние ASS
Субтитры: Японские [MeihuII] (ep. 1) внешние ASS

Режиссер: Nishimura Taiju
Автор оригинала: Shiomaneki
Студия: Breakbottle

Описание:
Первая серия.
1) Кадзу-кун влюблён во взрослую женщину, а его домогается её дочка.
2) Неопытная мангака хентайных додзинси просит помощи своего друга в интимном вопросе.
Вторая серия.
1) Юноша спустя десять лет встречается с подругой детства, с которой они должны пожениться. Вот только её мама...
2) Хорошо иметь взрослую соседку. И ужином угостит, и не только ужином...

anidb

Качество видео: DVDRip
Разрешение видео: 480p
Формат видео: MP4 (ep. 1), MKV (ep. 2)
Видео: 720-480, 16-9, VFR, AVC, 1783 Kbps (ep. 1), 817 Kbps (ep. 2)
Аудио: jpn, AAC, Stereo, 48.0 KHz, 190 Kbps (ep. 1), 151 Kbps (ep. 2)
General
Complete name : Shoujo kara shoujo e... 01 [VFR][530985C6].mp4
Format : MPEG-4
Format profile : Base Media / Version 2
Codec ID : mp42
File size : 257 MiB
Duration : 18mn 9s
Overall bit rate mode : Variable
Overall bit rate : 1 977 Kbps
Encoded date : UTC 2016-02-12 09:37:42
Tagged date : UTC 2016-02-12 09:37:42

Video
ID : 1
Format : AVC
Format/Info : Advanced Video Codec
Format profile : High@L4
Format settings, CABAC : Yes
Format settings, ReFrames : 5 frames
Codec ID : avc1
Codec ID/Info : Advanced Video Coding
Duration : 18mn 9s
Bit rate : 1 783 Kbps
Maximum bit rate : 5 844 Kbps
Width : 720 pixels
Height : 480 pixels
Display aspect ratio : 16:9
Original display aspect ratio : 16:9
Frame rate mode : Variable
Frame rate : 24.646 fps
Original frame rate : 29.970 fps
Minimum frame rate : 14.985 fps
Maximum frame rate : 119.880 fps
Standard : NTSC
Color space : YUV
Chroma subsampling : 4:2:0
Bit depth : 8 bits
Scan type : Progressive
Bits/(Pixel*Frame) : 0.209
Stream size : 231 MiB (90%)
Writing library : x264 core 123 r2184+681M 5d72658
Encoding settings : cabac=1 / ref=5 / deblock=1:-2:-2 / analyse=0x3:0x113 / me=umh / subme=7 / psy=1 / fade_compensate=0.00 / psy_rd=1.00:0.00 / mixed_ref=1 / me_range=32 / chroma_me=1 / trellis=1 / 8x8dct=1 / cqm=0 / deadzone=21,11 / fast_pskip=1 / chroma_qp_offset=-2 / threads=7 / sliced_threads=1 / slices=7 / nr=0 / decimate=1 / interlaced=0 / bluray_compat=0 / constrained_intra=0 / fgo=0 / bframes=3 / b_pyramid=2 / b_adapt=2 / b_bias=0 / direct=3 / weightb=1 / open_gop=0 / weightp=2 / keyint=250 / keyint_min=25 / scenecut=40 / intra_refresh=0 / rc_lookahead=40 / rc=crf / mbtree=1 / crf=16.0000 / qcomp=0.60 / qpmin=0 / qpmax=69 / qpstep=4 / ip_ratio=1.40 / aq=1:1.00
Encoded date : UTC 2016-02-12 09:37:42
Tagged date : UTC 2016-02-12 09:38:04

Audio
ID : 2
Format : AAC
Format/Info : Advanced Audio Codec
Format profile : LC
Codec ID : 40
Duration : 18mn 9s
Bit rate mode : Variable
Bit rate : 192 Kbps
Maximum bit rate : 211 Kbps
Channel(s) : 2 channels
Channel positions : Front: L R
Sampling rate : 48.0 KHz
Compression mode : Lossy
Stream size : 24.6 MiB (10%)
Encoded date : UTC 2016-02-12 09:37:50
Tagged date : UTC 2016-02-12 09:38:04
General
Unique ID : 246518796171935982790327518095751289392 (0xB975CB0B3C28FAE9B1B0EBF4921C9A30)
Complete name : Shoujo kara shoujo e... 02 [VFR][erokuni][33DD7B45].mkv
Format : Matroska
Format version : Version 4 / Version 2
File size : 120 MiB
Duration : 17mn 16s
Overall bit rate : 971 Kbps
Encoded date : UTC 2016-03-18 11:59:42
Writing application : mkvmerge v8.0.0 (''Til The Day That I Die'') 64bit
Writing library : libebml v1.3.1 + libmatroska v1.4.2
DURATION : 00:17:16.075000000
NUMBER_OF_FRAMES : 48566
NUMBER_OF_BYTES : 19470632
_STATISTICS_WRITING_APP : mkvmerge v8.0.0 (''Til The Day That I Die'') 64bit
_STATISTICS_WRITING_DATE_UTC : 2016-03-18 11:59:42
_STATISTICS_TAGS : BPS DURATION NUMBER_OF_FRAMES NUMBER_OF_BYTES

Video
ID : 1
Format : AVC
Format/Info : Advanced Video Codec
Format profile : High@L4
Format settings, CABAC : Yes
Format settings, ReFrames : 16 frames
Codec ID : V_MPEG4/ISO/AVC
Duration : 17mn 16s
Width : 720 pixels
Height : 480 pixels
Display aspect ratio : 16:9
Frame rate mode : Constant
Frame rate : 23.976 fps
Standard : NTSC
Color space : YUV
Chroma subsampling : 4:2:0
Bit depth : 8 bits
Scan type : Progressive
Title : Encoded for erokuni.net
Writing library : x264 core 132 r2309 3b1f1f7
Encoding settings : cabac=1 / ref=16 / deblock=1:0:0 / analyse=0x3:0x133 / me=umh / subme=11 / psy=1 / psy_rd=1.00:0.00 / mixed_ref=1 / me_range=24 / chroma_me=1 / trellis=2 / 8x8dct=1 / cqm=0 / deadzone=21,11 / fast_pskip=0 / chroma_qp_offset=-2 / threads=6 / lookahead_threads=1 / sliced_threads=0 / nr=0 / decimate=1 / interlaced=0 / bluray_compat=0 / constrained_intra=0 / bframes=16 / b_pyramid=2 / b_adapt=2 / b_bias=0 / direct=3 / weightb=1 / open_gop=0 / weightp=2 / keyint=240 / keyint_min=24 / scenecut=40 / intra_refresh=0 / rc_lookahead=60 / rc=crf / mbtree=1 / crf=16.0 / qcomp=0.60 / qpmin=0 / qpmax=69 / qpstep=4 / ip_ratio=1.40 / aq=1:1.00
Default : Yes
Forced : No

Audio
ID : 2
Format : AAC
Format/Info : Advanced Audio Codec
Format profile : LC
Codec ID : A_AAC
Duration : 17mn 16s
Channel(s) : 2 channels
Channel positions : Front: L R
Sampling rate : 48.0 KHz
Compression mode : Lossy
Delay relative to video : 9ms
Title : Encoded for erokuni.net
Default : Yes
Forced : No
File: Shoujo kara shoujo e... 01 [VFR][530985C6].mp4
Duration: 00:18:09 (1089.15)
Track #1: video
lang: Unknown (1)
codc: avc1 -> H264/AVC (22)
reso: 720x480 -> Unknown (aka not common)
fram: vfr
rate: 1783 kbps (1782.76)
dura: 00:18:09 (1089.09)
size: 0.00 B (0)
Track #2: audio
lang: Unknown (1)
codc: A_AAC/MPEG4/LC -> AAC (9)
chan: 2 -> Stereo
samp: 48000 Hz
rate: 190 kbps (189.57)
dura: 00:18:09 (1089.15)
size: 0.00 B (0)
Sizes: (check sanity)
disk: 256.64 MB (269111569)
trac: 0.00 B (0) [based on track size]
bitr: 256.07 MB (268505263) [based on bitrate]
tdif: 256.64 MB (269111569) 100.00%
bdif: 592.10 KB (606305) 0.22%
File: Shoujo kara shoujo e... 02 [VFR][erokuni][33DD7B45].mkv
Duration: 00:17:16 (1036.08)
Track #1: video (Encoded for erokuni.net)
lang: und (1)
codc: V_MPEG4/ISO/AVC -> H264/AVC (22)
reso: 720x480 (853x480) -> Unknown (aka not common) anamorphic
fram: 29.97 fps
rate: 817 kbps (816.95)
dura: 00:17:16 (1035.99)
size: 100.89 MB (105794344)
Track #2: audio (Encoded for erokuni.net)
lang: und -> Unknown (1)
codc: A_AAC -> AAC (9)
chan: 2 -> Stereo
samp: 48000 Hz
rate: 151 kbps (150.81)
dura: 00:17:16 (1036.01)
size: 18.63 MB (19530161)
Sizes: (check sanity)
disk: 119.96 MB (125784740)
trac: 119.52 MB (125324505) [based on track size]
bitr: 119.52 MB (125324040) [based on bitrate]
tdif: 449.45 KB (460235) 0.36%
bdif: 449.90 KB (460699) 0.36%
От [url=...2134140]BleedPaladin[/url] – Вторая серия. Русские, китайские, японские субтитры на первую серию. "Описание."
Трекер:  [ 26-Мар-2016 04:00 ]

Размер .torrent файла 16 KB


Размер: 377 MB
Хэш (hash) релиза: f12b2fd6d856b4cc63ee1bc3cf31672a4dda8eee
Подписка на обновления:

Еще никто не оставлял запись к записи скачать торрент Shoujo kara Shoujo e... А девочка созрела... . Будь первым!

!Обратная связь
//main.js show_panel