Статистика раздачи
Размер:  2 GB   |    Зарегистрирован:  1 год 1 месяц   |    .torrent скачан:  23 раза   |   

Пиры будут получены при скачивании

 

Скачать порно Green Green Thirteen Erolutions / Жаркое лето - Эролюция через торрент бесплатно :: UnionPron.org

 
 
Автор Сообщение

Sakura

avatar Sakura


Green Green Thirteen Erolutions
グリーングリーン THIRTEEN エロリューションズ
Жаркое лето - Эролюция

Год выпуска: 2004
Жанр: erotic game, romance, students, virgin, small breasts
Серии: ep. 1 of 1
Продолжительность: 31mn 12s
Цензура: Есть во всех файлах

Озвучка: Японская оригинальная
Озвучка: Русская любительская (одноголосая) [Dez]
Субтитры: Русские [RG Genshiken] (Перевод: Growly. Редакция: nonex, Reddog. Оформление: Reddog, Dez)

Студия: Studio Matrix

Описание: Прошедшие полгода после забавных и волнующих событий летнего лагеря, описанных в ТВ-сериале, только укрепили любовное чувство между Футабой Куцуки и Юсукэ Такасаки, хотя воспоминания об ушедшей в иной мир (иное измерение?) Мидори не оставляют парня. И вот для подготовки грядущего объединения со школой девочек в "Колокольный звон" с учительницей Чигусой прибывают сёстры Футаба и Вакаба вместе с крошкой Санаэ - к великой радости Юсукэ и его трёх дружков-балбесов. Во время этого короткого визита между Футабой и Юсукэ наконец происходит то, чего они так ждали, а над счастливыми влюблёнными с улыбкой витает дух Мидори...
© Алексей Фадеев, World Art

anidb

Доп. информация: Диск подготовлен группой RG Genshiken, большое им за это спасибо. Хороший двд-рип от них же [url=...1161397]здесь[/url].

Качество видео: DVD5
Формат видео: DVD Video
Видео: MPEG 2, 720-480, 4-3, 29.97 fps, 8822 Kbps
Аудио 1: jpn, AC3, Stereo, 48.0 KHz, 256 Kbps
Аудио 2: rus, AC3, Stereo, 48.0 KHz, 256 Kbps
General
Unique ID : 246913623011809110001644444533041508688 (0xB9C1D58291639C131CC58B483E85B150)
Complete name : title00.mkv
Format : Matroska
Format version : Version 2
File size : 2.08 GiB
Duration : 31mn 12s
Overall bit rate mode : Variable
Overall bit rate : 9 524 Kbps
Encoded date : UTC 2016-03-22 11:29:44
Writing application : MakeMKV v1.9.5 win(x64-release)
Writing library : libmakemkv v1.9.5 (1.3.0/1.4.1) win(x64-release)

Video
ID : 1
Format : MPEG Video
Format version : Version 2
Format profile : Main@Main
Format settings, BVOP : Yes
Format settings, Matrix : Default
Format settings, GOP : Variable
Format settings, picture structure : Frame
Codec ID : V_MPEG2
Codec ID/Info : MPEG 1 or 2 Video
Duration : 31mn 12s
Bit rate mode : Variable
Bit rate : 8 822 Kbps
Maximum bit rate : 9 000 Kbps
Width : 720 pixels
Height : 480 pixels
Display aspect ratio : 4:3
Frame rate mode : Constant
Frame rate : 29.970 fps
Standard : NTSC
Color space : YUV
Chroma subsampling : 4:2:0
Bit depth : 8 bits
Scan type : Interlaced
Scan order : Top Field First
Compression mode : Lossy
Bits/(Pixel*Frame) : 0.852
Time code of first frame : 01:00:06:00
Time code source : Group of pictures header
GOP, Open/Closed : Closed
Stream size : 1.92 GiB (93%)
Language : English
Default : No
Forced : No
Color primaries : BT.601 NTSC
Transfer characteristics : BT.601
Matrix coefficients : BT.601

Audio #1
ID : 2
Format : AC-3
Format/Info : Audio Coding 3
Mode extension : CM (complete main)
Format settings, Endianness : Big
Codec ID : A_AC3
Duration : 31mn 12s
Bit rate mode : Constant
Bit rate : 256 Kbps
Channel(s) : 2 channels
Channel positions : Front: L R
Sampling rate : 48.0 KHz
Bit depth : 16 bits
Compression mode : Lossy
Stream size : 57.1 MiB (3%)
Title : Stereo
Language : Japanese
Default : Yes
Forced : No

Audio #2
ID : 3
Format : AC-3
Format/Info : Audio Coding 3
Mode extension : CM (complete main)
Format settings, Endianness : Big
Codec ID : A_AC3
Duration : 31mn 12s
Bit rate mode : Constant
Bit rate : 256 Kbps
Channel(s) : 2 channels
Channel positions : Front: L R
Sampling rate : 48.0 KHz
Bit depth : 16 bits
Compression mode : Lossy
Stream size : 57.1 MiB (3%)
Title : Stereo
Language : Russian
Default : No
Forced : No

Text
ID : 4
Format : VobSub
Codec ID : S_VOBSUB
Codec ID/Info : Picture based subtitle format used on DVDs
Language : Russian
Default : Yes
Forced : No

Menu
00:00:00.066 : en:Chapter 01
00:01:49.008 : en:Chapter 02
00:25:31.530 : en:Chapter 03
00:26:52.711 : en:Chapter 04
00:29:49.921 : en:Chapter 05
00:30:54.018 : en:Chapter 06
00:31:06.397 : en:Chapter 07
Трекер:  [ 22-Мар-2016 16:00 ]

Размер .torrent файла 11 KB


Размер: 2 GB
Хэш (hash) релиза: 9829e28a8076adb534b5ef71239c8f26fc90980f
Подписка на обновления:

Еще никто не оставлял запись к записи скачать торрент Green Green Thirteen Erolutions Жаркое лето - Эролюция . Будь первым!

!Обратная связь
//main.js show_panel