Статистика раздачи
Размер:  2 GB   |    Зарегистрирован:  9 месяцев   |    .torrent скачан:  62 раза   |   

Пиры будут получены при скачивании

 

Скачать порно Dokidoki Oyako Lesson: Oshiete H na Obenkyou / Learning the Hard Way / Волнующие уроки матери и дочери через торрент бесплатно :: UnionPron.org

 
 
Автор Сообщение

Sakura

avatar Sakura


Dokidoki Oyako Lesson: Oshiete H na Obenkyou
Learning the Hard Way
ドキドキ母娘レッスン~教えて♪Hなお勉強~
Волнующие уроки матери и дочери

Год выпуска: 2007
Жанр: harem, housewives, incest, virgin, swimsuit, group sex
Серии: ep. 1-2 of 2
Продолжительность: 2*30mn
Цензура: Отсутствует

Язык: Японский
Озвучка: Оригинальная
Язык: Немецкий
Озвучка: Профессиональная (полное дублирование)

Режиссер: Raika Ken
Автор оригинала: Tinker Bell
Студия: Trimax

Описание: Жизнь студента колледжа никогда не бывает легкой. А тут симпатичная старшеклассница нуждающаяся в некоторых знаниях. Он не только проводит время помогая милой студентке, но как оказывается, и сексуальный матери в придачу. Легко понимая, что девушки будут соперничать за его логарифмическую линейку в штанах, на долго окружив заботой одного студента. Адаптация хентайной игры компании TinkerBell.

anidb

Доп. информация: В бонусах следующие хентаи: 1 диск - Daiakuji sp2, 2 диск - Yoru ga kuru! Square of the Moon 01. В бонусах только немецкая дорожка.

Качество видео: 2xDVD5
Формат видео: DVD Video
Видео: MPEG 2, 720-480, 16-9, 25 fps, 4328 Kbps
Аудио 1: ger, PCM, Stereo, 48.0 KHz, 1536 Kbps
Аудио 2: jpn, PCM, Stereo, 48.0 KHz, 1536 Kbps
General
Complete name : VIDEO_TS\VTS_01_1.VOB
Format : MPEG-PS
File size : 1 024 MiB
Duration : 23mn 55s
Overall bit rate mode : Variable
Overall bit rate : 5 983 Kbps

Video
ID : 224 (0xE0)
Format : MPEG Video
Format version : Version 2
Format profile : Main@Main
Format settings, BVOP : Yes
Format settings, Matrix : Default
Format settings, GOP : M=3, N=12
Format settings, picture structure : Frame
Duration : 23mn 55s
Bit rate mode : Variable
Bit rate : 4 328 Kbps
Maximum bit rate : 7 200 Kbps
Width : 720 pixels
Height : 576 pixels
Display aspect ratio : 16:9
Frame rate : 25.000 fps
Standard : PAL
Color space : YUV
Chroma subsampling : 4:2:0
Bit depth : 8 bits
Scan type : Interlaced
Scan order : Bottom Field First
Compression mode : Lossy
Bits/(Pixel*Frame) : 0.417
Time code of first frame : 00:00:00:10
Time code source : Group of pictures header
GOP, Open/Closed : Open
Stream size : 741 MiB (72%)

Audio
ID : 189 (0xBD)-160 (0xA0)
Format : PCM
Format settings, Endianness : Big
Format settings, Sign : Signed
Muxing mode : DVD-Video
Duration : 23mn 55s
Bit rate mode : Constant
Bit rate : 1 536 Kbps
Channel(s) : 2 channels
Sampling rate : 48.0 KHz
Bit depth : 16 bits
Delay relative to video : -80ms
Stream size : 263 MiB (26%)

Menu
Трекер:  [ 22-Мар-2016 01:30 ]

Размер .torrent файла 36 KB


Размер: 2 GB
Хэш (hash) релиза: 13f0de9ab218606dedc9f73b9222924b38f87c6a
Подписка на обновления:

Еще никто не оставлял запись к записи скачать торрент Dokidoki Oyako Lesson: Oshiete H na Obenkyou Learning the Hard Way . Будь первым!

!Обратная связь
//main.js show_panel