Статистика раздачи
Размер:  1.6 GB   |    Зарегистрирован:  1 год 8 месяцев   |    .torrent скачан:  15 раз   |   

Пиры будут получены при скачивании

 

Скачать порно Teizokurei Daydream / Мечты вульгарного духа через торрент бесплатно :: UnionPron.org

 
 
Автор Сообщение

Sakura

avatar Sakura


Teizokurei Daydream
低俗霊DAYDREAM
Мечты вульгарного духа

Год выпуска: 2004
Жанр: ecchi, BDSM, fantasy, horror, sexual abuse, tragedy, violence
Серии: ep. 1-4 of 4 + bonus live
Продолжительность: 4*25mn + 8mn
Цензура: Этти - легкая эротика

Озвучка: Японская оригинальная
Озвучка: Русская профессиональная (одноголосая) внешняя [Гаврилов]
Субтитры: Русские [Master Cid] ep. 01 [Ozorkin] ep. 02-04 внешние SRT
Субтитры: Английские [R1DVD] внешние ASS

Режиссер: Sekita Osamu
Автор оригинала: Okuse Saki
Студия: Hal Film Maker

Описание: Вот каким должен быть фансервис! Если бы у вас был выбор - работать экстрасенсом или работать экстарсексом - что бы выбрали? Героиня не хочет зарабатывать деньги шестым чувством. В общем-то она права - кто же, кто действительно видит духов, захочет работать очередной магичкой! И потому она работает госпожой. Ну да, в таком салоне. А в свободное от работы время - изгоняет духов. По вызову. А вот героиня № 2. Ну да, ОЯШ. С большим плюшевым медведем. И большими странностями. Так что люди в метро освобождают скамеечку. Да что они знают! Зато у вас есть шанс узнать - и почему бьют лицо споткнувшемуся на улице агенту, и что используют как подвязки для чулок, и в чем состояла дополнительная опция для опытных клиентов. И что лучше бы поверить в духов. Смотреть обязательно мальчикам и девочкам от старшего студенческого до младшего пенсионного возраста. Старшим воздержаться - так и помереть недолго!
© tiger_cub, world-art

anidb

Доп. информация: Единственный хороший рип в открытом доступе. Что странно, двд чистый. Озвучка представляет собой самостоятельный перевод.

Качество видео: DVDRip [торрент иваниваныч]
Разрешение видео: 480p
Формат видео: MKV
Видео: 712-480, 4-3, 23.976 fps, AVC, 981-1158 kbps
Аудио 1: jpn, AC-3, 5.1 channels, 48.0 KHz, 448 Kbps
Аудио 2: rus, AC-3, 5.1 channels, 48.0 KHz, 448 Kbps
General
Unique ID : 196913900539158103683825829419208552031 (0x94243CDD475AC448BE52A8C0392A2E5F)
Complete name : Teizokurei_daydream_01_[Galan_rus_raw][243C057B].mkv
Format : Matroska
Format version : Version 4 / Version 2
File size : 276 MiB
Duration : 25mn 28s
Overall bit rate : 1 515 Kbps
Movie name : рип торрент иваниваныч
Encoded date : UTC 2015-03-16 23:58:19
Writing application : mkvmerge v7.5.0 (''Glass Culture'') 32bit built on Jan 4 2015 16:37:25
Writing library : Lavf53.19.0

Video
ID : 1
Format : AVC
Format/Info : Advanced Video Codec
Format profile : High 10@L5.2
Format settings, CABAC : Yes
Format settings, ReFrames : 16 frames
Codec ID : V_MPEG4/ISO/AVC
Duration : 25mn 28s
Bit rate : 1 036 Kbps
Width : 712 pixels
Height : 480 pixels
Display aspect ratio : 4:3
Original display aspect ratio : 4:3
Frame rate mode : Constant
Frame rate : 23.976 fps
Color space : YUV
Chroma subsampling : 4:2:0
Bit depth : 10 bits
Scan type : Progressive
Bits/(Pixel*Frame) : 0.126
Stream size : 189 MiB (68%)
Title : Teizokurei daydream 01
Writing library : x264 core 130 r2273 b3065e6
Encoding settings : cabac=1 / ref=16 / deblock=1:1:1 / analyse=0x3:0x133 / me=tesa / subme=9 / psy=0 / mixed_ref=1 / me_range=32 / chroma_me=1 / trellis=0 / 8x8dct=1 / cqm=0 / deadzone=21,11 / fast_pskip=0 / chroma_qp_offset=0 / threads=12 / lookahead_threads=3 / sliced_threads=0 / nr=0 / decimate=1 / interlaced=0 / bluray_compat=0 / constrained_intra=0 / bframes=16 / b_pyramid=2 / b_adapt=2 / b_bias=0 / direct=3 / weightb=1 / open_gop=0 / weightp=2 / keyint=250 / keyint_min=23 / scenecut=40 / intra_refresh=0 / rc_lookahead=60 / rc=crf / mbtree=1 / crf=14.0 / qcomp=0.60 / qpmin=0 / qpmax=81 / qpstep=4 / ip_ratio=1.40 / aq=2:0.60
Default : Yes
Forced : No
Encoded date : UTC 2015-03-16 23:58:19
DURATION : 00:25:28.527000000
NUMBER_OF_FRAMES : 36648
NUMBER_OF_BYTES : 203472652
_STATISTICS_WRITING_APP : mkvmerge v7.5.0 (''Glass Culture'') 32bit built on Jan 4 2015 16:37:25
_STATISTICS_WRITING_DATE_UTC : 2015-03-17 12:12:53
_STATISTICS_TAGS : BPS DURATION NUMBER_OF_FRAMES NUMBER_OF_BYTES

Audio
ID : 2
Format : AC-3
Format/Info : Audio Coding 3
Mode extension : CM (complete main)
Format settings, Endianness : Big
Codec ID : A_AC3
Duration : 25mn 28s
Bit rate mode : Constant
Bit rate : 448 Kbps
Channel(s) : 6 channels
Channel positions : Front: L C R, Side: L R, LFE
Sampling rate : 48.0 KHz
Bit depth : 16 bits
Compression mode : Lossy
Stream size : 81.6 MiB (30%)
Title : jpn
Language : Japanese
Default : Yes
Forced : No
DURATION : 00:25:28.224000000
NUMBER_OF_FRAMES : 47757
NUMBER_OF_BYTES : 85580544
_STATISTICS_WRITING_APP : mkvmerge v7.5.0 (''Glass Culture'') 32bit built on Jan 4 2015 16:37:25
_STATISTICS_WRITING_DATE_UTC : 2015-03-17 12:12:53
_STATISTICS_TAGS : BPS DURATION NUMBER_OF_FRAMES NUMBER_OF_BYTES

Menu
00:00:00.000 : en:Chapter 1
00:01:05.300 : en:Chapter 2
00:22:47.500 : en:Chapter 3
00:24:24.334 : en:Chapter 4
00:25:01.001 : en:Chapter 5
General
Unique ID : 227639733854007927860076579043740632979 (0xAB41D168328E7819ACF2F9D01BB64793)
Complete name : Teizokurei_daydream_-_Bonus_live_[Galan_rus_raw][16311D25].mkv
Format : Matroska
Format version : Version 4 / Version 2
File size : 127 MiB
Duration : 8mn 3s
Overall bit rate : 2 195 Kbps
Movie name : рип торрент иваниваныч
Encoded date : UTC 2015-03-17 04:21:39
Writing application : mkvmerge v7.5.0 (''Glass Culture'') 32bit built on Jan 4 2015 16:37:25
Writing library : Lavf53.19.0

Video
ID : 1
Format : AVC
Format/Info : Advanced Video Codec
Format profile : High 10@L5.2
Format settings, CABAC : Yes
Format settings, ReFrames : 16 frames
Codec ID : V_MPEG4/ISO/AVC
Duration : 8mn 3s
Bit rate : 1 704 Kbps
Width : 700 pixels
Height : 476 pixels
Display aspect ratio : 4:3
Frame rate mode : Constant
Frame rate : 59.880 fps
Original frame rate : 59.940 fps
Color space : YUV
Chroma subsampling : 4:2:0
Bit depth : 10 bits
Scan type : Progressive
Bits/(Pixel*Frame) : 0.085
Stream size : 98.3 MiB (78%)
Title : Teizokurei daydream - Bonus live
Writing library : x264 core 130 r2273 b3065e6
Encoding settings : cabac=1 / ref=16 / deblock=1:-1:-1 / analyse=0x3:0x133 / me=tesa / subme=9 / psy=1 / psy_rd=1.00:0.15 / mixed_ref=1 / me_range=32 / chroma_me=1 / trellis=0 / 8x8dct=1 / cqm=0 / deadzone=21,11 / fast_pskip=0 / chroma_qp_offset=-2 / threads=12 / lookahead_threads=3 / sliced_threads=0 / nr=0 / decimate=1 / interlaced=0 / bluray_compat=0 / constrained_intra=0 / bframes=16 / b_pyramid=2 / b_adapt=2 / b_bias=0 / direct=3 / weightb=1 / open_gop=0 / weightp=2 / keyint=250 / keyint_min=25 / scenecut=40 / intra_refresh=0 / rc_lookahead=60 / rc=crf / mbtree=1 / crf=21.0 / qcomp=0.60 / qpmin=0 / qpmax=81 / qpstep=4 / ip_ratio=1.40 / aq=1:1.00
Default : Yes
Forced : No
Encoded date : UTC 2015-03-17 04:21:39
DURATION : 00:08:03.984000000
NUMBER_OF_FRAMES : 29010
NUMBER_OF_BYTES : 105485348
_STATISTICS_WRITING_APP : mkvmerge v7.5.0 (''Glass Culture'') 32bit built on Jan 4 2015 16:37:25
_STATISTICS_WRITING_DATE_UTC : 2015-03-17 12:17:41
_STATISTICS_TAGS : BPS DURATION NUMBER_OF_FRAMES NUMBER_OF_BYTES

Audio
ID : 2
Format : AC-3
Format/Info : Audio Coding 3
Mode extension : CM (complete main)
Format settings, Endianness : Big
Codec ID : A_AC3
Duration : 8mn 3s
Bit rate mode : Constant
Bit rate : 448 Kbps
Channel(s) : 6 channels
Channel positions : Front: L C R, Side: L R, LFE
Sampling rate : 48.0 KHz
Bit depth : 16 bits
Compression mode : Lossy
Stream size : 25.8 MiB (20%)
Title : jpn
Language : Japanese
Default : Yes
Forced : No
DURATION : 00:08:03.744000000
NUMBER_OF_FRAMES : 15117
NUMBER_OF_BYTES : 27089664
_STATISTICS_WRITING_APP : mkvmerge v7.5.0 (''Glass Culture'') 32bit built on Jan 4 2015 16:37:25
_STATISTICS_WRITING_DATE_UTC : 2015-03-17 12:17:41
_STATISTICS_TAGS : BPS DURATION NUMBER_OF_FRAMES NUMBER_OF_BYTES
Трекер:  [ 14-Мар-2016 03:30 ]

Размер .torrent файла 18 KB


Размер: 1.6 GB
Хэш (hash) релиза: 58bf8a6980a0dcdb12b27ea94aa5590113c411b9
Подписка на обновления:

Еще никто не оставлял запись к записи скачать торрент Teizokurei Daydream Мечты вульгарного духа . Будь первым!

!Обратная связь
//main.js show_panel