Статистика раздачи
Размер:  726 MB   |    Зарегистрирован:  1 год 9 месяцев   |    .torrent скачан:  18 раз   |   

Пиры будут получены при скачивании

 

Скачать порно Der Engel von Afrika / Ангел покоряет Африку через торрент бесплатно :: UnionPron.org

 
 
Автор Сообщение

Sakura

avatar Sakura


Der Engel von Afrika | Ангел покоряет Африку

[url=...1287695] [/url]
Год производства: 1999 г.
Страна: Германия | Germany
Жанр: Feature
Продолжительность: 01:24:42
Язык: Немецкий | German

Режиссер: Basil Sandford
Студия: DBM Video | Family Blue

В ролях: [url=...2067422]Babette Blue[/url], Carlos Valdez, [url=...2071980]Christina Dark[/url], Gary Boldiszar, George Uhl, Jessica Lanoux, [url=...1287695]Laura Angel[/url], [url=...2055529]Judith Bella[/url], Michel Maros

Описание: Ангел по имени Лаура и другие ангелочки покоряют Африку!

Scene Breakdowns:
Scene 1. Jessica Lanoux, Gary Boldiszar
Scene 2. Jessica Lanoux, Carlos Valdez
Scene 3. [url=...1287695]Laura Angel[/url], George Uhl
Scene 4. [url=...2067422]Babette Blue[/url], Carlos Valdez
Scene 5. [url=...2067422]Babette Blue[/url], [url=...2071980]Christina Dark[/url], Jessica Lanoux, [url=...2055529]Judith Bella[/url], Carlos Valdez, George Uhl
Scene 6. [url=...2067422]Babette Blue[/url], Gary Boldiszar, guy
General
Format : AVI
Format/Info : Audio Video Interleave
File size : 725 MiB
Duration : 1h 24mn
Overall bit rate : 1 197 Kbps
Writing application : Lavf52.22.1
Video
Format : MPEG-4 Visual
Format profile : Simple@L1
Format settings, BVOP : No
Format settings, QPel : No
Format settings, GMC : No warppoints
Format settings, Matrix : Default (H.263)
Codec ID : XVID
Codec ID/Hint : XviD
Duration : 1h 24mn
Bit rate : 1 073 Kbps
Width : 512 pixels
Height : 384 pixels
Display aspect ratio : 4/3
Frame rate : 25.000 fps
Resolution : 24 bits
Colorimetry : 4:2:0
Scan type : Progressive
Bits/(Pixel*Frame) : 0.218
Stream size : 650 MiB (90%)
Writing library : Lavc52.0.0
Audio
Format : MPEG Audio
Format version : Version 1
Format profile : Layer 3
Codec ID : 55
Codec ID/Hint : MP3
Duration : 1h 24mn
Bit rate mode : Constant
Bit rate : 112 Kbps
Channel(s) : 2 channels
Sampling rate : 44.1 KHz
Resolution : 16 bits
Stream size : 67.9 MiB (9%)
Alignment : Aligned on interleaves
Interleave, duration : 26 ms (0.65 video frame)
Качество видео: DVDRip
Формат видео: AVI
Видео: Xvid 512x384 25fps 1073kbps
Аудио: MP3 44100Hz stereo 112kbps
Трекер:  [ 11-Мар-2016 22:00 ]

Размер .torrent файла 15 KB


Размер: 726 MB
Хэш (hash) релиза: 0edf7b809601fab68a1d3960b568799bc6f7152d
Подписка на обновления:

Еще никто не оставлял запись к записи скачать торрент Der Engel von Afrika Ангел покоряет Африку . Будь первым!

!Обратная связь
//main.js show_panel