Статистика раздачи
Размер:  2 GB   |    Зарегистрирован:  1 год 3 месяца   |    .torrent скачан:  30 раз   |   

Пиры будут получены при скачивании

 

Скачать порно Popotan / Попотан / Чикодуван через торрент бесплатно :: UnionPron.org

 
 
Автор Сообщение

Sakura

avatar Sakura


Popotan
ぽぽたん
Попотан

Год производства: 2003 г.
Жанр: Ecchi, Comedy, Drama
Серии: ep. 12 of 12
Продолжительность: 12*25mn
Цензура: Отсутствует

Язык: Японский
Озвучка: Оригинальная
Режиссер: Kimura Shin`ichirou
Автор оригинала: ぷちフェレット
Студия: Shaft

Описание: Несмотря на хентайные корни данного аниме, авторам удалось, на мой взгляд, добиться главного – заставить сопереживать и разделять жизненные позиции главных героев. Так что, весь фансервис, обилие которого просто сбивает с толку в начале просмотра, шаблонные персонажи, и нарочито не серьёзный (даже детский) стиль повествования просто меркнут перед легкостью подачи и глубиной концепции. Но всё очень просто как одуванчик. И именно в этом гениальность. По сути данное аниме я бы поставил в один ряд с «Kino no Tabi» и «Wolfs Rain», но в отличии от них «Po-po-tan» более прямолинеен менее абстрагирован. В нём на первый план выходят чувства и мировоззрения главных героев, а самому миру, на фоне которого развиваются события, особого внимания не уделяются. Удивительно, но даже при отсутствии сведений о персонажах (интрига правит балом :), режиссеру таки удалось раскрыть их характеры довольно полно, на сколько это возможно за 12 серий. В общем, персонажи удались на славу, причём ВСЕ, включая второго плана! Не знаю как кто, а я в последней трети сериала на Май-чан без слёз смотреть не мог. Тут сильный эффект оказал контраст – комедийный и беззаботный по началу сериал (благодаря чему возникло чувство доверия и привязанности к персонажам, особенно смешили лаконичные замечания горничной), довольно резко сменился самой настоящей драмой. Арт очень яркий и красочный – глаз радует, а суть радует душу. Огромный вклад в передачу эмоций привнесло музыкальное сопровождение, которое, по-моему, очень гармонично вплелось в канву повествования. За него хочется сказать отдельное спасибо композитору. Ну а сами вопросы, поиском ответа на которые занимались героини, если задуматься, не так уж и чужды каждому. Моё мнение – считаю, что сериал достоин высшей оценки.

ЗЫ: раньше я как-то не придавал этому значения, но теперь, одуванчик - мой любимый цветок ^_^

© Bademu, world-art

anidb

Доп. информация: Японские [R2J] диски. Присутствуют бонусы и лайв-бонусы.

Качество видео: 7xDVD5
Формат видео: DVD Video
Видео: MPEG 2, 720-480, 16-9, 29.970 fps, 6767-8395 Kbps
Аудио: jpn, AC-3, Stereo, 48.0 KHz, 448 Kbps
General
Unique ID : 92138536768595404116996999031697210135 (0x45513C98561268D5D95075A0A6887B17)
Complete name : Z:\01-02.mkv
Format : Matroska
Format version : Version 2
File size : 2.56 GiB
Duration : 49mn 51s
Overall bit rate mode : Variable
Overall bit rate : 7 362 Kbps
Encoded date : UTC 2016-03-09 16:18:02
Writing application : MakeMKV v1.9.5 win(x64-release)
Writing library : libmakemkv v1.9.5 (1.3.0/1.4.1) win(x64-release)

Video
ID : 1
Format : MPEG Video
Format version : Version 2
Format profile : Main@Main
Format settings, BVOP : Yes
Format settings, Matrix : Custom
Format settings, GOP : M=3, N=15
Format settings, picture structure : Frame
Codec ID : V_MPEG2
Codec ID/Info : MPEG 1 or 2 Video
Duration : 49mn 51s
Bit rate mode : Variable
Bit rate : 6 767 Kbps
Maximum bit rate : 9 800 Kbps
Width : 720 pixels
Height : 480 pixels
Display aspect ratio : 16:9
Frame rate mode : Constant
Frame rate : 29.970 fps
Standard : NTSC
Color space : YUV
Chroma subsampling : 4:2:0
Bit depth : 8 bits
Scan type : Interlaced
Scan order : Top Field First
Compression mode : Lossy
Bits/(Pixel*Frame) : 0.653
Stream size : 2.36 GiB (92%)
Language : English
Default : No
Forced : No

Audio
ID : 2
Format : AC-3
Format/Info : Audio Coding 3
Mode extension : CM (complete main)
Format settings, Endianness : Big
Codec ID : A_AC3
Duration : 49mn 51s
Bit rate mode : Constant
Bit rate : 448 Kbps
Channel(s) : 2 channels
Channel positions : Front: L R
Sampling rate : 48.0 KHz
Bit depth : 16 bits
Compression mode : Lossy
Stream size : 160 MiB (6%)
Title : Stereo
Language : Japanese
Default : Yes
Forced : No

Menu
00:00:00.000 : en:Chapter 01
00:02:00.053 : en:Chapter 02
00:10:47.046 : en:Chapter 03
00:23:25.003 : en:Chapter 04
00:24:54.960 : en:Chapter 05
00:25:40.939 : en:Chapter 06
00:27:11.029 : en:Chapter 07
00:36:04.028 : en:Chapter 08
00:47:36.053 : en:Chapter 09
00:49:06.009 : en:Chapter 10
Трекер:  [ 09-Мар-2016 22:30 ]

Размер .torrent файла 130 KB


Размер: 2 GB
Хэш (hash) релиза: eff8e4450751ced7980a715810871b32c28470d0
Подписка на обновления:

Еще никто не оставлял запись к записи скачать торрент Popotan Попотан . Будь первым!

!Обратная связь
//main.js show_panel