Статистика раздачи
Размер:  534 MB   |    Зарегистрирован:  1 год 5 месяцев   |    .torrent скачан:  29 раз   |   

Пиры будут получены при скачивании

 

Скачать порно Maro no Kanja wa Gatenkei / Пациентка Др. Маро теперь его сиделка на дому через торрент бесплатно :: UnionPron.org

 
 
Автор Сообщение

Sakura

avatar Sakura


Maro no Kanja wa Gatenkei
麻呂の患者はガテン系
Пациентка Др. Маро теперь его сиделка на дому

Год производства: 2015 г.
Жанр: Doctor, NTR, Anal sex, Oral sex, Group sex, Paizuri, Straight
Серии: ep. 1-2 of 2
Продолжительность: 2*25mn
Цензура: Есть во всех файлах

Озвучка: Японская оригинальная
Субтитры: Русские [LookerA] Внешние ASS
Субтитры: Английские [HH] [SubDESU-H] Внешние ASS
Субтитры: Китайские [Maho.sub] [Okazu.Sub] Внешние ASS

Режиссер: Oota Hideta
Автор оригинала: Elf
Студия: Studio 1st, Mitsu

Описание: Based on the game by Elf. Maro works as a doctor. He is a pervert. One day, Sakimi came to his doctor''s office asking about a small pain and soon he begin to gain her trust and he begin to give her advice about marriage life, specially about to make babies. Of course, he takes advantage of her trust and begun to sexually caress her in several parts of her body. One day, the doctor did it in the front of her husband, resulting in the husband smashing the doctor''s hands. He cannot use his hands anymore for some time and Sakimi begin to help the doctor since she fell responsible for it (she never doubted of the doctor she always think that the doctor is just doing his job caressing her). The doctor now cannot eat, bath and even urinate alone without the help of Sakimi, and she with good will try to help him out in everything. What will happen next?

anidb

Качество видео: BDRip
Разрешение видео: 1080p
Формат видео: MP4
Видео: 1920-1080, 16-9, 23.976 fps, AVC, 1 268 Kbps ep. 1, 1 484 Kbps ep. 2
Аудио: jpn AAC, Stereo, 48.0 KHz, 86.3 Kbps ep. 1, 88.0 Kbps ep. 2
General
Complete name : Maro_no_kanja_wa_gatenkei_01_[BDrip][DF13F6DF].mp4
Format : MPEG-4
Format profile : Base Media
Codec ID : isom
File size : 246 MiB
Duration : 25mn 17s
Overall bit rate mode : Variable
Overall bit rate : 1 360 Kbps
Encoded date : UTC 1970-01-01 00:00:00
Tagged date : UTC 1970-01-01 00:00:00
Writing application : Lavf52.87.1

Video
ID : 1
Format : AVC
Format/Info : Advanced Video Codec
Format profile : High@L5.1
Format settings, CABAC : Yes
Format settings, ReFrames : 6 frames
Codec ID : avc1
Codec ID/Info : Advanced Video Coding
Duration : 25mn 17s
Bit rate : 1 268 Kbps
Width : 1 920 pixels
Height : 1 080 pixels
Display aspect ratio : 16:9
Frame rate mode : Constant
Frame rate : 23.976 fps
Color space : YUV
Chroma subsampling : 4:2:0
Bit depth : 8 bits
Scan type : Progressive
Bits/(Pixel*Frame) : 0.026
Stream size : 229 MiB (93%)
Writing library : x264 core 142 r2431+42 c69a006 tMod [8-bit@all X86_64]
Encoding settings : cabac=1 / ref=6 / deblock=1:0:0 / analyse=0x3:0x133 / me=umh / subme=10 / psy=1 / fade_compensate=0.00 / psy_rd=0.40:0.00 / mixed_ref=1 / me_range=32 / chroma_me=1 / trellis=2 / 8x8dct=1 / cqm=0 / deadzone=21,11 / fast_pskip=1 / chroma_qp_offset=-2 / threads=8 / lookahead_threads=1 / sliced_threads=0 / nr=0 / decimate=1 / interlaced=0 / bluray_compat=0 / constrained_intra=0 / fgo=0 / bframes=8 / b_pyramid=2 / b_adapt=2 / b_bias=0 / direct=3 / weightb=1 / open_gop=0 / weightp=2 / keyint=360 / keyint_min=30 / scenecut=40 / intra_refresh=0 / rc_lookahead=150 / rc=crf / mbtree=1 / crf=19.4000 / qcomp=0.60 / qpmin=0:0:0 / qpmax=56:56:56 / qpstep=4 / ip_ratio=1.40 / aq=1:0.60 / aq-sensitivity=10.00 / aq-factor=1.00:1.00:1.00 / aq2=0 / aq3=0
Encoded date : UTC 1970-01-01 00:00:00
Tagged date : UTC 1970-01-01 00:00:00

Audio
ID : 2
Format : AAC
Format/Info : Advanced Audio Codec
Format profile : LC
Codec ID : 40
Duration : 25mn 17s
Bit rate mode : Variable
Bit rate : 86.3 Kbps
Channel(s) : 2 channels
Channel positions : Front: L R
Sampling rate : 48.0 KHz
Compression mode : Lossy
Stream size : 15.6 MiB (6%)
Encoded date : UTC 1970-01-01 00:00:00
Tagged date : UTC 1970-01-01 00:00:00
General
Complete name : Maro_no_kanja_wa_gatenkei_02_[BDrip][A5605554].mp4
Format : MPEG-4
Format profile : Base Media
Codec ID : isom
File size : 288 MiB
Duration : 25mn 31s
Overall bit rate mode : Variable
Overall bit rate : 1 577 Kbps
Encoded date : UTC 1970-01-01 00:00:00
Tagged date : UTC 1970-01-01 00:00:00
Writing application : Lavf52.87.1

Video
ID : 1
Format : AVC
Format/Info : Advanced Video Codec
Format profile : High@L5.1
Format settings, CABAC : Yes
Format settings, ReFrames : 6 frames
Codec ID : avc1
Codec ID/Info : Advanced Video Coding
Duration : 25mn 30s
Bit rate : 1 484 Kbps
Width : 1 920 pixels
Height : 1 080 pixels
Display aspect ratio : 16:9
Frame rate mode : Constant
Frame rate : 23.976 fps
Color space : YUV
Chroma subsampling : 4:2:0
Bit depth : 8 bits
Scan type : Progressive
Bits/(Pixel*Frame) : 0.030
Stream size : 271 MiB (94%)
Writing library : x264 core 142 r2431+42 c69a006 tMod [8-bit@all X86_64]
Encoding settings : cabac=1 / ref=6 / deblock=1:0:0 / analyse=0x3:0x133 / me=umh / subme=10 / psy=1 / fade_compensate=0.00 / psy_rd=0.40:0.00 / mixed_ref=1 / me_range=32 / chroma_me=1 / trellis=2 / 8x8dct=1 / cqm=0 / deadzone=21,11 / fast_pskip=1 / chroma_qp_offset=-2 / threads=12 / lookahead_threads=2 / sliced_threads=0 / nr=0 / decimate=1 / interlaced=0 / bluray_compat=0 / constrained_intra=0 / fgo=0 / bframes=8 / b_pyramid=2 / b_adapt=2 / b_bias=0 / direct=3 / weightb=1 / open_gop=0 / weightp=2 / keyint=360 / keyint_min=30 / scenecut=40 / intra_refresh=0 / rc_lookahead=150 / rc=crf / mbtree=1 / crf=19.4000 / qcomp=0.60 / qpmin=0:0:0 / qpmax=56:56:56 / qpstep=4 / ip_ratio=1.40 / aq=1:0.60 / aq-sensitivity=10.00 / aq-factor=1.00:1.00:1.00 / aq2=0 / aq3=0
Encoded date : UTC 1970-01-01 00:00:00
Tagged date : UTC 1970-01-01 00:00:00

Audio
ID : 2
Format : AAC
Format/Info : Advanced Audio Codec
Format profile : LC
Codec ID : 40
Duration : 25mn 31s
Bit rate mode : Variable
Bit rate : 88.0 Kbps
Channel(s) : 2 channels
Channel positions : Front: L R
Sampling rate : 48.0 KHz
Compression mode : Lossy
Stream size : 16.1 MiB (6%)
Encoded date : UTC 1970-01-01 00:00:00
Tagged date : UTC 1970-01-01 00:00:00
От [url=...1995534]vattok[/url] – там двдрип, здесь бдрип
Трекер:  [ 02-Мар-2016 23:30 ]

Размер .torrent файла 12 KB


Размер: 534 MB
Хэш (hash) релиза: 7fe2caf552f9e488ca67dc0b7618f08c82c13df7
Подписка на обновления:

Еще никто не оставлял запись к записи скачать торрент Maro no Kanja wa Gatenkei Пациентка Др. Маро теперь его сиделка на дому . Будь первым!

!Обратная связь
//main.js show_panel